Ивановский Торрент трекер
Яндекс.Погода
 

[Цитировать]
HUNTER

День нашей Победы. Парады Победы в городах Украины
Год выпуска: 2013
Производство: Украина, Первый национальный
Жанр: Документальный
Продолжительность: 03:14:53
Язык: Русский, Украинский
Описание: 9 мая 2013 года. День нашей Победы. Парады Победы в городах Украины.
Релиз от: & специально для
Раздача от группы:
Семпл: http://multi-up.com/863950
Качество: DVB (Amos 2/3 at 4.0°W)
Формат: MPEG
Видео кодек: MPEG2
Аудио кодек: MPEG1 Layer 2
Видео: MPEG2 Video 720x576 (4:3) 25.00fps ~3 664 Kbps, 0.353 bit/pixel
Аудио: MPEG Audio 48000Hz 2 channel 224 Кбит/сек

MI

Общее
Полное имя Den.nashey.Pobedy.Parady.Pobedy.v.gorodakh.Ukrainy.2013.DVB.Files-x.mpg
Формат : MPEG-PS
Размер файла : 5,40 Гбайт
Продолжительность : 3 ч. 14 м.
Режим общего битрейта : Переменный
Общий поток : 3967 Кбит/сек
Библиотека кодирования : (c) 1998-2010 Womble Multimedia, Inc. / MPEG Video Wizard DVD 5.0.0.114 (01/2010) / Nov 13 2010
Видео
Идентификатор : 224 (0xE0)
Формат : MPEG Video
Версия формата : Version 2
Профиль формата : Main@Main
Параметр BVOP формата : Да
Параметр матрицы формата : Выборочная
Параметр GOP формата : Variable
Продолжительность : 3 ч. 14 м.
Вид битрейта : Переменный
Битрейт : 3664 Кбит/сек
Максимальный битрейт : 15,0 Мбит/сек
Ширина : 720 пикселей
Высота : 576 пикселей
Соотношение сторон : 4:3
Частота кадров : 25,000 кадров/сек
Стандарт вещания : PAL
Цветовое пространство : YUV
Субдискретизация насыщенности : 4:2:0
Битовая глубина : 8 бит
Тип развёртки : Чересстрочная
Порядок развёртки : Верхнее поле первое
Метод сжатия : С потерями
Бит/(Пиксели*Кадры) : 0.353
TimeCode_FirstFrame : 00:00:00:00
TimeCode_Source : Group of pictures header
Размер потока : 4,99 Гбайт (92%)
Библиотека кодирования : (c) 1998-2010 Womble Multimedia, Inc. / MPEG Video Wizard DVD 5.0.0.114 (01/2010) / Nov 13 2010
Аудио
Идентификатор : 192 (0xC0)
Формат : MPEG Audio
Версия формата : Version 1
Профиль формата : Layer 2
Продолжительность : 3 ч. 14 м.
Вид битрейта : Постоянный
Битрейт : 224 Кбит/сек
Каналы : 2 канала
Частота : 48,0 КГц
Метод сжатия : С потерями
Размер потока : 312 Мбайт (6%)

Скриншоты



Показать сообщения:    

Текущее время: 13-Дек 05:33

Часовой пояс: UTC ± 0


Вы не можете начинать темы
Вы не можете отвечать на сообщения
Вы не можете редактировать свои сообщения
Вы не можете удалять свои сообщения
Вы не можете голосовать в опросах
Вы не можете прикреплять файлы к сообщениям
Вы не можете скачивать файлы

!ВНИМАНИЕ!
Сайт не предоставляет электронные версии произведений, а занимается лишь коллекционированием и каталогизацией ссылок, присылаемых и публикуемых на форуме нашими читателями. Если вы являетесь правообладателем какого-либо представленного материала и не желаете, чтобы ссылка на него находилась в нашем каталоге, свяжитесь с нами, и мы незамедлительно удалим ее. Файлы для обмена на трекере предоставлены пользователями сайта, и администрация не несет ответственности за их содержание. Просьба не заливать файлы, защищенные авторскими правами, а также файлы нелегального содержания!