Ивановский Торрент трекер
Яндекс.Погода
 

[Цитировать]
HUNTER

День, когда убили Кеннеди
Год выпуска: 2013
Страна: Россия
Жанр: Документальный
Продолжительность: 00:52:34
Перевод: Не требуется
Описание: Множество туристов со всего света приезжают в Даллас только для того, чтобы увидеть место, где 22 ноября 1963 года был смертельно ранен 35-й президент США Джон Фицджеральд Кеннеди.
Трагедия, случившаяся здесь 50 лет назад, продолжает волновать не только американцев. В ходе официального расследования были проанализированы все обстоятельства покушения и показания очевидцев. Был выдвинут целый ряд неофициальных версий произошедшего. Трагическому событию в Далласе посвящены тысячи книг. Однако споры вокруг него не утихают до сих пор.
Восстановить события последнего дня жизни Джона Кеннеди авторам фильма помогли люди, оказавшиеся свидетелями одного из самых громких преступлений ХХ века. Некоторые из них впервые дают интервью: агент секретной службы, который до сих пор не простил себе, что не смог заслонить президента; врач, пытавшийся спасти его; человек, обвиненный в соучастии в преступлении, женщина, в доме которой жила семья Ли Харви Освальда. Для них эта история до сих пор не закончена.
В фильме использованы показания очевидцев, редкие кадры кинохроники и не публиковавшиеся ранее фотографии, проливающие новый свет на события 22 ноября 1963 года – "черного дня" в истории США.
Сэмпл: http://multi-up.com/925645
качество: SATRip
формат: AVI
Видео: 704x400 (1.76:1), 25 fps, XviD build 63 ~1499 kbps avg, 0.21 bit/pixel
Аудио: 48 kHz, MPEG Layer 3, 2 ch, ~128.00 kbps avg

MediaInfo

Den.kogda.ubili.Kennedi.avi
Format : AVI
Format/Info : Audio Video Interleave
File size : 616 MiB
Duration : 52mn 34s
Overall bit rate : 1 638 Kbps
Writing application : VirtualDubMod 1.5.10.3 | www.virtualdub-fr.org || (build 2550/release)
Writing library : VirtualDubMod build 2550/release
Video #0
ID : 0
Format : MPEG-4 Visual
Format profile : Advanced Simple@L5
Format settings, BVOP : 2
Format settings, QPel : No
Format settings, GMC : No warppoints
Format settings, Matrix : Default (MPEG)
Codec ID : XVID
Codec ID/Hint : XviD
Duration : 52mn 34s
Bit rate : 1 500 Kbps
Width : 704 pixels
Height : 400 pixels
Display aspect ratio : 16:9
Frame rate : 25.000 fps
Color space : YUV
Chroma subsampling : 4:2:0
Bit depth : 8 bits
Scan type : Progressive
Compression mode : Lossy
Bits/(Pixel*Frame) : 0.213
Stream size : 564 MiB (92%)
Writing library : XviD 63
Audio #1
ID : 1
Format : MPEG Audio
Format version : Version 1
Format profile : Layer 3
Mode : Joint stereo
Mode extension : MS Stereo
Codec ID : 55
Codec ID/Hint : MP3
Duration : 52mn 34s
Bit rate mode : Constant
Bit rate : 128 Kbps
Channel(s) : 2 channels
Sampling rate : 48.0 KHz
Compression mode : Lossy
Stream size : 48.1 MiB (8%)
Alignment : Aligned on interleaves
Interleave, duration : 40 ms (1.00 video frame)
Interleave, preload duration : 504 ms
Writing library : LAME3.98r
Encoding settings : -m j -V 4 -q 0 -lowpass 17 -b 128

Скриншоты

Показать сообщения:    

Текущее время: 19-Окт 04:41

Часовой пояс: UTC - 1


Вы не можете начинать темы
Вы не можете отвечать на сообщения
Вы не можете редактировать свои сообщения
Вы не можете удалять свои сообщения
Вы не можете голосовать в опросах
Вы не можете прикреплять файлы к сообщениям
Вы не можете скачивать файлы

!ВНИМАНИЕ!
Сайт не предоставляет электронные версии произведений, а занимается лишь коллекционированием и каталогизацией ссылок, присылаемых и публикуемых на форуме нашими читателями. Если вы являетесь правообладателем какого-либо представленного материала и не желаете, чтобы ссылка на него находилась в нашем каталоге, свяжитесь с нами, и мы незамедлительно удалим ее. Файлы для обмена на трекере предоставлены пользователями сайта, и администрация не несет ответственности за их содержание. Просьба не заливать файлы, защищенные авторскими правами, а также файлы нелегального содержания!