День ворон / Волшебный лес / Le Jour Des Corneilles (Жан Кристоф Дюссант / Jean Christophe Dessaint) [2012 г., мультфильм, драма, приключения, BDRip-AVC] AVO (Гаврилов) + DVO + Fre + Subs (Eng, Fre) :: Ивановский Торрент трекер
Важное объявление!
У Нас Все раздачи мультитрекерные, при нуле пиров в релизах, можете смело вставать на закачку!
 
Автор Сообщение

HUNTER

Стаж:
4 года 11 месяцев
Сообщений:
66045

Репутация: 101

[+] [-]
Вне форума [Профиль] [ЛС]

| Все релизы мультфильма || BDRip 1080p, 5.27 GB |- P R E S E N T SДень ворон / Волшебный лес / Le Jour Des Corneilles-
Страна: Франция
Жанр: мультфильм, драма, приключения
Продолжительность: 01:34:19
Год выпуска: 2012
Перевод 1: Авторский (одноголосый закадровый) Андрей Гаврилов
Перевод 2: Любительский (двухголосый закадровый) "Сладкая парочка"
Субтитры: русских нет-Режиссёр: Жан Кристоф Дюссант / Jean Christophe Dessaint
Роли озвучивали: Жан Рено, Лоран Дойч, Изабель Карре, Клод Шаброль, Шанталь Нойвирт, Бруно Подалидес, Патрик Лигарде, Филипп Юшан, Жан-Кристоф Лорье, Элоди Хубер- | | -Описание: Это история маленького мальчика, жестокий и людоедоподобный отец которого растил его в глубоком лесу как животное и не выпускал за его пределы. Но однажды ему удается сбежать, и он добирается до ближайшего города, чтобы открыть для себя, что таких как он много и что на самом деле значит "любовь"...-Доп. информация:
- Полноформатный рип 1920x816 (2.353:1) сделан с Blu-Ray диска LE JOUR DES CORNEILLES 2012 DTS-HD MA 5.1 Full BluRay AVC 1080p-STEAL.
- Перевод Андрея Гаврилова осуществлен в 2013 г. силами форумов E180 и WIDESCREEN "Кино в Авторском переводе" по заказу: foxlight, xerman13, multmir, bla_, Nick, SavineX, furria62, Nadoelo, Эдуард, karantin66, федор александрович, Letyoha3, Диммон, Guyver, olegsoleg, v1111o, Daniel Rock, Savely, ilbilb, Кирыч, Linnan, Inspektor, xfiles, DFCbit, oleg-k, pestel, phaeton77, Foots, Kastro, carnivale, luka69, Iceman.
- Звуковая дорожка с переводом А. Гаврилова получена путем наложения чистого голоса на центральный канал оригинальной (французской) DTS-HD MA 5.1 дорожки - xfiles.
- Так же отдельное спасибо xfiles за пересборку и исправление русской звуковой дорожки DVO ("Сладкая парочка").
-Сэмпл/Sample (54.7 MB, 1 минута)-Качество: BDRip 1080p
Формат: MKV
Видео: 1920x816 (2.353:1), 23,976 fps, ~4533 kbps avg, 0.121 bit/pixel
Аудио #1: Русский, DTS / 5.1 / 48 kHz / 1509 kbps / 16-bit - AVO | Андрей Гаврилов
Аудио #2: Русский, 48 kHz, AC3, 6 ch, 448 Kbps - DVO | "Сладкая парочка"
Аудио #3: French, DTS / 5.1 / 48 kHz / 1509 kbps / 16-bit - Original
Субтитры: English (Full), French (Full)
Навигация по главам: есть (12 не именованных глав)

MediaInfo / x264Log

x264Log
raw [info]: 1920x816p 1:1 @ 24000/1001 fps (cfr)x264 [info]: using SAR=1/1x264 [info]: using cpu capabilities: MMX2 SSE2Fast SSSE3 SSE4.2 AVX XOP FMA4 FMA3 SSEMisalign LZCNT BMI1x264 [info]: profile High, level 4.1x264 [info]: frame I:1103 Avg QP:12.61 size:277761 PSNR Mean Y:49.97 U:53.88 V:54.23 Avg:50.74 Global:49.80x264 [info]: frame P:38194 Avg QP:14.17 size: 42787 PSNR Mean Y:48.40 U:54.17 V:54.52 Avg:49.27 Global:48.27x264 [info]: frame B:96393 Avg QP:15.09 size: 13135 PSNR Mean Y:48.41 U:53.65 V:53.99 Avg:49.27 Global:47.99x264 [info]: consecutive B-frames: 3.0% 11.4% 4.3% 66.2% 4.1% 5.1% 0.8% 1.9% 0.4% 1.6% 1.3%x264 [info]: mb I I16..4: 7.0% 60.4% 32.6%x264 [info]: mb P I16..4: 1.0% 7.9% 2.6% P16..4: 18.1% 13.2% 8.2% 2.7% 0.4% skip:46.0%x264 [info]: mb B I16..4: 0.3% 2.4% 0.4% B16..8: 18.0% 7.6% 1.5% direct: 2.0% skip:67.8% L0:41.9% L1:51.0% BI: 7.1%x264 [info]: 8x8 transform intra:71.0% inter:40.8%x264 [info]: coded y,uvDC,uvAC intra: 83.4% 78.5% 64.4% inter: 9.0% 8.5% 3.4%x264 [info]: i16 v,h,dc,p: 64% 10% 8% 18%x264 [info]: i8 v,h,dc,ddl,ddr,vr,hd,vl,hu: 9% 8% 18% 10% 11% 10% 9% 12% 14%x264 [info]: i4 v,h,dc,ddl,ddr,vr,hd,vl,hu: 13% 10% 12% 10% 13% 11% 10% 10% 12%x264 [info]: i8c dc,h,v,p: 40% 33% 17% 10%x264 [info]: Weighted P-Frames: Y:4.3% UV:3.0%x264 [info]: ref P L0: 67.1% 7.8% 16.3% 7.9% 0.9% 0.0%x264 [info]: ref B L0: 86.5% 10.3% 3.2%x264 [info]: ref B L1: 93.7% 6.3%x264 [info]: SSIM Mean Y:0.9916852 (20.801db)x264 [info]: PSNR Mean Y:48.419 U:53.799 V:54.141 Avg:49.281 Global:48.080 kb/s:4532.89encoded 135690 frames, 8.43 fps, 4532.89 kb/s
GeneralUnique ID : 182271328364770891695530114767975667243 (0x89202E516F493BFE9C192C6C0CBCD62B)Complete name : Le.Jour.Des.Corneilles.2012.BDRip.1080p.dfcbit.mkvFormat : MatroskaFormat version : Version 2File size : 5.27 GiBDuration : 1h 34mnOverall bit rate : 8 002 KbpsEncoded date : UTC 2013-10-06 05:06:16Writing application : mkvmerge v4.0.0 ('The Stars were mine') built on Jun 6 2010 16:18:42Writing library : libebml v1.0.0 + libmatroska v1.0.0
VideoID : 1Format : AVCFormat/Info : Advanced Video CodecFormat profile : High@L4.1Format settings, CABAC : YesFormat settings, ReFrames : 4 framesCodec ID : V_MPEG4/ISO/AVCDuration : 1h 34mnBit rate : 4 533 KbpsWidth : 1 920 pixelsHeight : 816 pixelsDisplay aspect ratio : 2.35:1Frame rate mode : ConstantFrame rate : 23.976 fpsColor space : YUVChroma subsampling : 4:2:0Bit depth : 8 bitsScan type : ProgressiveBits/(Pixel*Frame) : 0.121Stream size : 2.98 GiB (55%)Title : NTSC, 1920x816 (2.353:1), BDRip 1080p - tRuAVC & Multfilmy [DFCbit]Writing library : x264 core 133 r2334kMod a3ac64bEncoding settings : cabac=1 / ref=4 / deblock=1:-2:-1 / analyse=0x3:0x133 / me=umh / subme=11 / psy=1 / fade_compensate=0.00 / psy_rd=0.60:0.00 / mixed_ref=1 / me_range=32 / chroma_me=1 / trellis=2 / 8x8dct=1 / cqm=0 / deadzone=21,11 / fast_pskip=0 / chroma_qp_offset=-2 / threads=12 / lookahead_threads=3 / sliced_threads=0 / nr=0 / decimate=1 / interlaced=0 / bluray_compat=0 / constrained_intra=0 / bframes=10 / b_pyramid=2 / b_adapt=2 / b_bias=0 / direct=1 / weightb=1 / open_gop=0 / weightp=2 / keyint=250 / keyint_min=23 / scenecut=40 / intra_refresh=0 / rc_lookahead=70 / rc=crf / mbtree=0 / crf=17.1000 / qcomp=0.80 / qpmin=0 / qpmax=69 / qpstep=4 / vbv_maxrate=50000 / vbv_bufsize=62500 / crf_max=0.0 / nal_hrd=none / ip_ratio=1.40 / pb_ratio=1.30 / aq=3:0.90Language : FrenchDefault : YesForced : NoColor primaries : BT.709Transfer characteristics : BT.709Matrix coefficients : BT.709
Audio #1ID : 2Format : DTSFormat/Info : Digital Theater SystemsMode : 16Format settings, Endianness : BigCodec ID : A_DTSDuration : 1h 34mnBit rate mode : ConstantBit rate : 1 509 KbpsChannel(s) : 6 channelsChannel positions : Front: L C R, Side: L R, LFESampling rate : 48.0 KHzBit depth : 16 bitsCompression mode : LossyStream size : 1 018 MiB (19%)Title : DTS / 5.1 / 48 kHz / 1509 kbps / 16-bit, AVO | А. ГавриловLanguage : RussianDefault : YesForced : No
Audio #2ID : 3Format : AC-3Format/Info : Audio Coding 3Mode extension : CM (complete main)Format settings, Endianness : BigCodec ID : A_AC3Duration : 1h 34mnBit rate mode : ConstantBit rate : 448 KbpsChannel(s) : 6 channelsChannel positions : Front: L C R, Side: L R, LFESampling rate : 48.0 KHzBit depth : 16 bitsCompression mode : LossyStream size : 302 MiB (6%)Title : AC3, 6 ch, 48 kHz, 448 kbps, DVO | "Сладкая парочка"Language : RussianDefault : NoForced : No
Audio #3ID : 4Format : DTSFormat/Info : Digital Theater SystemsMode : 16Format settings, Endianness : BigCodec ID : A_DTSDuration : 1h 34mnBit rate mode : ConstantBit rate : 1 509 KbpsChannel(s) : 6 channelsChannel positions : Front: L C R, Side: L R, LFESampling rate : 48.0 KHzBit depth : 16 bitsCompression mode : LossyStream size : 1 018 MiB (19%)Title : DTS / 5.1 / 48 kHz / 1509 kbps / 16-bit, OriginalLanguage : FrenchDefault : NoForced : No
Text #1ID : 5Format : UTF-8Codec ID : S_TEXT/UTF8Codec ID/Info : UTF-8 Plain TextTitle : SRT, FullLanguage : EnglishDefault : NoForced : No
Text #2ID : 6Format : UTF-8Codec ID : S_TEXT/UTF8Codec ID/Info : UTF-8 Plain TextTitle : SRT, FullLanguage : FrenchDefault : NoForced : No
Menu00:00:00.000 : en:Chapter 100:03:57.404 : en:Chapter 200:13:11.165 : en:Chapter 300:18:22.518 : en:Chapter 400:25:57.222 : en:Chapter 500:31:45.195 : en:Chapter 600:38:44.989 : en:Chapter 700:47:38.147 : en:Chapter 800:56:55.537 : en:Chapter 901:06:00.540 : en:Chapter 1001:16:46.560 : en:Chapter 1101:28:08.200 : en:Chapter 12

Скриншоты

Скриншот с названием мультфильма
--BDRip 1080p


Source Blu-Ray

Релиз от групп | and | -Данный релиз не будет воспроизводиться на бытовых плеерах не поддерживающих MKV и H.264Обсуждение релизов в AVC формате || Свежие AVC рипы-Приятного просмотра!Просьба к скачавшим: не уходите с раздачи!

_________________
Показать сообщения:    

Текущее время: Сегодня 14:03

Часовой пояс: GMT



Вы не можете начинать темы
Вы не можете отвечать на сообщения
Вы не можете редактировать свои сообщения
Вы не можете удалять свои сообщения
Вы не можете голосовать в опросах
Вы не можете прикреплять файлы к сообщениям
Вы не можете скачивать файлы