Ивановский Торрент трекер
Яндекс.Погода
 

[Цитировать]
HUNTER

| Все релизы мультфильма || BDRip-AVC, 1.74 GB |- P R E S E N T SДень ворон / Волшебный лес / Le Jour Des Corneilles- Страна: Франция
Жанр: мультфильм, драма, приключения
Продолжительность: 01:34:19
Год выпуска: 2012
Перевод 1: Авторский (одноголосый закадровый) Андрей Гаврилов
Перевод 2: Любительский (двухголосый закадровый) "Сладкая парочка"
Субтитры: русских нет-Режиссёр: Жан Кристоф Дюссант / Jean Christophe Dessaint
Роли озвучивали: Жан Рено, Лоран Дойч, Изабель Карре, Клод Шаброль, Шанталь Нойвирт, Бруно Подалидес, Патрик Лигарде, Филипп Юшан, Жан-Кристоф Лорье, Элоди Хубер- | | -Описание: Это история маленького мальчика, жестокий и людоедоподобный отец которого растил его в глубоком лесу как животное и не выпускал за его пределы. Но однажды ему удается сбежать, и он добирается до ближайшего города, чтобы открыть для себя, что таких как он много и что на самом деле значит "любовь"...-Доп. информация:
- Полноформатный рип 1040x442 (2.353:1) сделан с Blu-Ray диска LE JOUR DES CORNEILLES 2012 DTS-HD MA 5.1 Full BluRay AVC 1080p-STEAL.
- Перевод Андрея Гаврилова осуществлен в 2013 г. силами форумов E180 и WIDESCREEN "Кино в Авторском переводе" по заказу: foxlight, xerman13, multmir, bla_, Nick, SavineX, furria62, Nadoelo, Эдуард, karantin66, федор александрович, Letyoha3, Диммон, Guyver, olegsoleg, v1111o, Daniel Rock, Savely, ilbilb, Кирыч, Linnan, Inspektor, xfiles, DFCbit, oleg-k, pestel, phaeton77, Foots, Kastro, carnivale, luka69, Iceman.
- Звуковая дорожка с переводом А. Гаврилова получена путем наложения чистого голоса на центральный канал оригинальной (французской) DTS-HD MA 5.1 дорожки - xfiles.
- Так же отдельное спасибо xfiles за пересборку и исправление русской звуковой дорожки DVO ("Сладкая парочка").
-Сэмпл/Sample (18.4 MB, 1 минута)-Качество: BDRip-AVC
Формат: MKV
Видео: 1040x442 (2.353:1), 23,976 fps, ~1297 kbps avg, 0.118 bit/pixel
Аудио #1: Русский, 48.0 kHz, AC3, 6 ch, 448 Kbps - AVO | Андрей Гаврилов
Аудио #2: Русский, 48.0 kHz, AC3, 6 ch, 448 Kbps - DVO | "Сладкая парочка"
Аудио #3: French, 48.0 kHz, AC3, 6 ch, 448 kbps - Original
Субтитры: English (Full), French (Full)
Навигация по главам: есть (12 не именованных глав)
MediaInfo / x264Log
x264Log
raw [info]: 1040x442p 1:1 @ 24000/1001 fps (cfr)x264 [info]: using SAR=1/1x264 [info]: using cpu capabilities: MMX2 SSE2Fast SSSE3 SSE4.2 AVX XOP FMA4 FMA3 SSEMisalign LZCNT BMI1x264 [info]: profile High, level 4.1x264 [info]: frame I:1100 Avg QP:15.46 size: 89118 PSNR Mean Y:47.48 U:51.52 V:51.87 Avg:48.23 Global:47.21x264 [info]: frame P:35382 Avg QP:18.09 size: 11807 PSNR Mean Y:45.95 U:51.49 V:51.88 Avg:46.78 Global:45.84x264 [info]: frame B:99208 Avg QP:18.77 size: 4052 PSNR Mean Y:46.23 U:51.88 V:52.26 Avg:47.08 Global:45.67x264 [info]: consecutive B-frames: 2.5% 7.2% 5.0% 62.4% 7.2% 7.3% 1.4% 2.7% 0.5% 0.7% 0.3% 1.0% 0.2% 0.8% 0.8%x264 [info]: mb I I16..4: 7.4% 46.3% 46.3%x264 [info]: mb P I16..4: 0.7% 4.2% 2.4% P16..4: 18.5% 13.0% 7.7% 2.4% 0.5% skip:50.8%x264 [info]: mb B I16..4: 0.2% 1.5% 0.4% B16..8: 15.0% 6.3% 2.0% direct: 2.0% skip:72.6% L0:46.4% L1:45.2% BI: 8.4%x264 [info]: 8x8 transform intra:61.2% inter:39.7%x264 [info]: coded y,uvDC,uvAC intra: 81.0% 72.2% 52.6% inter: 8.7% 6.0% 1.9%x264 [info]: i16 v,h,dc,p: 49% 14% 12% 26%x264 [info]: i8 v,h,dc,ddl,ddr,vr,hd,vl,hu: 8% 8% 11% 11% 12% 11% 11% 13% 16%x264 [info]: i4 v,h,dc,ddl,ddr,vr,hd,vl,hu: 13% 9% 14% 9% 12% 10% 10% 9% 13%x264 [info]: i8c dc,h,v,p: 36% 36% 16% 11%x264 [info]: Weighted P-Frames: Y:5.3% UV:3.4%x264 [info]: ref P L0: 50.2% 8.2% 14.4% 6.7% 4.9% 4.1% 3.1% 1.9% 1.6% 1.6% 1.4% 1.6% 0.3% 0.0%x264 [info]: ref B L0: 66.6% 10.7% 6.8% 4.7% 3.4% 2.4% 1.9% 1.2% 1.1% 0.7% 0.5%x264 [info]: ref B L1: 92.4% 7.6%x264 [info]: SSIM Mean Y:0.9900775 (20.034db)x264 [info]: PSNR Mean Y:46.171 U:51.778 V:52.161 Avg:47.014 Global:45.728 kb/s:1297.30encoded 135690 frames, 16.97 fps, 1297.30 kb/s
GeneralUnique ID : 174728985565494045562311907950015821460 (0x8373941B8B727ECCAB7BA56754F83694)Complete name : Le.Jour.Des.Corneilles.2012.BDRip.442p.dfcbit.mkvFormat : MatroskaFormat version : Version 2File size : 1.74 GiBDuration : 1h 34mnOverall bit rate : 2 644 KbpsEncoded date : UTC 2013-10-05 13:02:20Writing application : mkvmerge v4.0.0 ('The Stars were mine') built on Jun 6 2010 16:18:42Writing library : libebml v1.0.0 + libmatroska v1.0.0
VideoID : 1Format : AVCFormat/Info : Advanced Video CodecFormat profile : High@L4.1Format settings, CABAC : YesFormat settings, ReFrames : 12 framesCodec ID : V_MPEG4/ISO/AVCDuration : 1h 34mnBit rate : 1 297 KbpsWidth : 1 040 pixelsHeight : 442 pixelsDisplay aspect ratio : 2.35:1Frame rate mode : ConstantFrame rate : 23.976 fpsColor space : YUVChroma subsampling : 4:2:0Bit depth : 8 bitsScan type : ProgressiveBits/(Pixel*Frame) : 0.118Stream size : 875 MiB (47%)Title : NTSC, 1040x442 (2.353:1), BDRip 442p - tRuAVC & Multfilmy [DFCbit]Writing library : x264 core 133 r2334kMod a3ac64bEncoding settings : cabac=1 / ref=12 / deblock=1:-2:-1 / analyse=0x3:0x133 / me=umh / subme=11 / psy=1 / fade_compensate=0.00 / psy_rd=0.60:0.00 / mixed_ref=1 / me_range=32 / chroma_me=1 / trellis=2 / 8x8dct=1 / cqm=0 / deadzone=21,11 / fast_pskip=0 / chroma_qp_offset=-2 / threads=12 / lookahead_threads=3 / sliced_threads=0 / nr=0 / decimate=1 / interlaced=0 / bluray_compat=0 / constrained_intra=0 / bframes=14 / b_pyramid=2 / b_adapt=2 / b_bias=0 / direct=1 / weightb=1 / open_gop=0 / weightp=2 / keyint=250 / keyint_min=23 / scenecut=40 / intra_refresh=0 / rc_lookahead=70 / rc=crf / mbtree=0 / crf=18.5400 / qcomp=0.80 / qpmin=0 / qpmax=69 / qpstep=4 / vbv_maxrate=50000 / vbv_bufsize=62500 / crf_max=0.0 / nal_hrd=none / ip_ratio=1.40 / pb_ratio=1.30 / aq=3:0.90Language : FrenchDefault : YesForced : NoColor primaries : BT.709Transfer characteristics : BT.709Matrix coefficients : BT.709
Audio #1ID : 2Format : AC-3Format/Info : Audio Coding 3Mode extension : CM (complete main)Format settings, Endianness : BigCodec ID : A_AC3Duration : 1h 34mnBit rate mode : ConstantBit rate : 448 KbpsChannel(s) : 6 channelsChannel positions : Front: L C R, Side: L R, LFESampling rate : 48.0 KHzBit depth : 16 bitsCompression mode : LossyStream size : 302 MiB (17%)Title : AC3, 6 ch, 48 kHz, 448 kbps, AVO | А. ГавриловLanguage : RussianDefault : YesForced : No
Audio #2ID : 3Format : AC-3Format/Info : Audio Coding 3Mode extension : CM (complete main)Format settings, Endianness : BigCodec ID : A_AC3Duration : 1h 34mnBit rate mode : ConstantBit rate : 448 KbpsChannel(s) : 6 channelsChannel positions : Front: L C R, Side: L R, LFESampling rate : 48.0 KHzBit depth : 16 bitsCompression mode : LossyStream size : 302 MiB (17%)Title : AC3, 6 ch, 48 kHz, 448 kbps, DVO | "Сладкая парочка"Language : RussianDefault : NoForced : No
Audio #3ID : 4Format : AC-3Format/Info : Audio Coding 3Mode extension : CM (complete main)Format settings, Endianness : BigCodec ID : A_AC3Duration : 1h 34mnBit rate mode : ConstantBit rate : 448 KbpsChannel(s) : 6 channelsChannel positions : Front: L C R, Side: L R, LFESampling rate : 48.0 KHzBit depth : 16 bitsCompression mode : LossyStream size : 302 MiB (17%)Title : AC3, 6 ch, 48 kHz, 448 kbps, OriginalLanguage : FrenchDefault : NoForced : No
Text #1ID : 5Format : UTF-8Codec ID : S_TEXT/UTF8Codec ID/Info : UTF-8 Plain TextTitle : SRT, FullLanguage : EnglishDefault : NoForced : No
Text #2ID : 6Format : UTF-8Codec ID : S_TEXT/UTF8Codec ID/Info : UTF-8 Plain TextTitle : SRT, FullLanguage : FrenchDefault : NoForced : No
Menu00:00:00.000 : en:Chapter 100:03:57.404 : en:Chapter 200:13:11.165 : en:Chapter 300:18:22.518 : en:Chapter 400:25:57.222 : en:Chapter 500:31:45.195 : en:Chapter 600:38:44.989 : en:Chapter 700:47:38.147 : en:Chapter 800:56:55.537 : en:Chapter 901:06:00.540 : en:Chapter 1001:16:46.560 : en:Chapter 1101:28:08.200 : en:Chapter 12
Скриншоты
Скриншот с названием мультфильма
--BDRip-AVC


Source Blu-Ray

Релиз от групп | and | -Данный релиз не будет воспроизводиться на бытовых плеерах не поддерживающих MKV и H.264FAQ по просмотру AVC
Показать сообщения:    

Текущее время: 21-Окт 16:57

Часовой пояс: UTC - 1


Вы не можете начинать темы
Вы не можете отвечать на сообщения
Вы не можете редактировать свои сообщения
Вы не можете удалять свои сообщения
Вы не можете голосовать в опросах
Вы не можете прикреплять файлы к сообщениям
Вы не можете скачивать файлы

!ВНИМАНИЕ!
Сайт не предоставляет электронные версии произведений, а занимается лишь коллекционированием и каталогизацией ссылок, присылаемых и публикуемых на форуме нашими читателями. Если вы являетесь правообладателем какого-либо представленного материала и не желаете, чтобы ссылка на него находилась в нашем каталоге, свяжитесь с нами, и мы незамедлительно удалим ее. Файлы для обмена на трекере предоставлены пользователями сайта, и администрация не несет ответственности за их содержание. Просьба не заливать файлы, защищенные авторскими правами, а также файлы нелегального содержания!