Ивановский Торрент трекер
Яндекс.Погода
 

[Цитировать]
HUNTER

Демоны старшей школы (ТВ-2) / High School DxD New (Янагисава Тэцуя)[TV New] [12 из 12] [Без хардсаба] [RUS(ext),JAP+SUB] [2013 г.,приключения, мистика, этти, комедия, демоны, BDRemux][1080p]
-

-
Страна: Япония
Год выпуска: 2013 г.
Жанр: приключения, мистика, этти, комедия, демоны
Тип: TV
Продолжительность: 12 эп, ~27 мин. серия
Режиссер: Янагисава Тэцуя
Студия: TNK

-
Описание: 17-летний Иссэй Хёдо, большой ценитель женской красоты, ни разу не пожалел, что поступил в академию Куо, где первое же свидание с прекрасной незнакомкой окончилось летальным исходом. Ведь в итоге он возродился демоном, да не простым, а приближенным самой Риас Гремори – королевы школы и сестры нынешнего Князя Тьмы! Только так парень смог узнать о реальном мире и таящейся в себе силе Красного дракона. С боевой перчаткой на левой руке Хёдо заслужил уважение товарищей по дружине, помог хозяйке и любимой избежать вражеских козней и даже завел небольшой гарем – первый шаг к мечте!
Вот только, засветившись в высших сферах, главный герой привлек к себе внимание властителей сразу трех сил мироздания: демонов, падших ангелов и Небесного Воинства. Теперь вместо того, чтобы вдумчиво общаться с чудесными, немыслимыми красавицами, что каждый день ждут его в школе и дома, Иссэй вынужден расследовать дело Святых Мечей, предупреждать межмировые войны и принимать в гостях будущего шурина… ага, Люцифером его зовут. Разумеется, гарем удачливого воина все растет – не пора ли подумать о смене места жительства?

-
Доп. информация:© Hollow, World Art-
Качество: BDRemux
Тип релиза: Без хардсаба
Формат видео: M2TS
Видео: AVC 1920x1080;Hi8p; ~ 37.0 Mbps; max 48.0 Mbps ; 23.976 fps
Аудио: PCM 48000Hz stereo,1536kbps, 16bit Язык Японский
Аудио:RUS 1-3 (ext): AC3, 48000Hz, 2ch, ~192 Kbps
-

Озвучка:RUS(ext)
  • двухголосая (муж./жен.) от Cuba77 & NikaLenina [TV New 01-12] (AniDUB)
  • трёхголосая от Zendos & Eladiel & Lupin [TV New 01-12] (Anilibria)
  • одноголосая (жен.) от Persona99 [TV New 01-05] (GetSmart)
    -
    Субтитры:
  • Chirito & IIIu6ko & White_Kittik & Gerale [TV New 01-12 ](полные/вспомогательные)
  • Присутствуют моменты без перевода (новые сцены), при просмотре дополнительно используйте субтитры в папке надписи [TV New 01-12]
    -
    Серия состоит из:
    High School DxD - ТВ (12 эп. + спэшлы), адаптация ранобэ, 2012
    High School DxD OVA - OVA (2 эп.), продолжение, 2012
    High School DxD New - ТВ (12 эп.), продолжение, 2013
    -
Подробные тех. данные
ОбщееИдентификатор : 0 (0x0)Полное имя : H:\Аниме BDRemux 1080p\High School DxD\High School DxD Nev\High School DxD New 01.m2tsФормат : BDAVФормат/Информация : Blu-ray VideoРазмер файла : 7,67 ГбайтПродолжительность : 26 м.Режим общего битрейта : ПеременныйОбщий поток : 40,8 Мбит/секМаксимальный общий битрейт : 48,0 Мбит/сек
ВидеоИдентификатор : 4113 (0x1011)Идентификатор меню : 1 (0x1)Формат : AVCФормат/Информация : Advanced Video CodecПрофиль формата : High@L4.1Параметр CABAC формата : ДаПараметр ReFrames формата : 2 кадраИдентификатор кодека : 27Продолжительность : 26 м.Вид битрейта : ПеременныйБитрейт : 37,7 Мбит/секШирина : 1920 пикселейВысота : 1080 пикселейСоотношение сторон : 16:9Частота кадров : 23,976 кадра/секЦветовое пространство : YUVСубдискретизация насыщенности : 4:2:0Битовая глубина : 8 битТип развёртки : ПрогрессивнаяБит/(Пиксели*Кадры) : 0.758Размер потока : 7,08 Гбайт (92%)
АудиоИдентификатор : 4352 (0x1100)Идентификатор меню : 1 (0x1)Формат : PCMПараметр Endianness формата : BigПараметр Sign формата : SignedРежим смешивания : Blu-rayИдентификатор кодека : 128Продолжительность : 26 м.Вид битрейта : ПостоянныйБитрейт : 1536 Кбит/секКаналы : 2 каналаРасположение каналов : Front: L RЧастота : 48,0 КГцБитовая глубина : 16 битРазмер потока : 296 Мбайт (4%)
Аудио:RUS(ext)Идентификатор : 1Формат : AC-3Формат/Информация : Audio Coding 3Расширение режима : CM (complete main)Параметр Endianness формата : BigИдентификатор кодека : A_AC3Продолжительность : 26 м.Вид битрейта : ПостоянныйБитрейт : 192 Кбит/секКаналы : 2 каналаРасположение каналов : Front: L RЧастота : 48,0 КГцБитовая глубина : 16 битМетод сжатия : С потерямиРазмер потока : 36,9 Мбайт (100%)Язык : RussianDefault : ДаForced : Нет
Список эпизодов
High School DxD New
01. Another Disquieting Premonition!
02. The Holy Sword Is Here!
03. I`ll Destroy the Holy Sword!
04. A Strong Enemy Appeared!
05. Decisive Battle at Kuoh Academy!
06. Go, Occult Research Club!
07. Summer! Bathing Suits! I`m in Trouble!
08. Open House Begins!
09. I Have a Junior!
10. Various Three-way Deadlocks!
11. The Leaders` Summit Begins!
12. Clash of the Twin Sky Dragons!
ОтличияСкриншоты


Показать сообщения:    

Текущее время: 14-Дек 13:23

Часовой пояс: UTC ± 0


Вы не можете начинать темы
Вы не можете отвечать на сообщения
Вы не можете редактировать свои сообщения
Вы не можете удалять свои сообщения
Вы не можете голосовать в опросах
Вы не можете прикреплять файлы к сообщениям
Вы не можете скачивать файлы

!ВНИМАНИЕ!
Сайт не предоставляет электронные версии произведений, а занимается лишь коллекционированием и каталогизацией ссылок, присылаемых и публикуемых на форуме нашими читателями. Если вы являетесь правообладателем какого-либо представленного материала и не желаете, чтобы ссылка на него находилась в нашем каталоге, свяжитесь с нами, и мы незамедлительно удалим ее. Файлы для обмена на трекере предоставлены пользователями сайта, и администрация не несет ответственности за их содержание. Просьба не заливать файлы, защищенные авторскими правами, а также файлы нелегального содержания!