Важное объявление!
У Нас Все раздачи мультитрекерные, при нуле пиров в релизах, можете смело вставать на закачку!
 
Автор Сообщение

HUNTER

Стаж:
4 года 10 месяцев
Сообщений:
65485

Репутация: 101

[+] [-]
Вне форума [Профиль] [ЛС]

Демоны старшей школы ОВА / High School DxD OVA (Янагисава Тэцуя)[OVA] [2 из 2] [Без хардсаба] [RUS(ext),JAP+SUB][2012 г., приключения, мистика, этти, комедия, демоны, BDRemux][1080p]
-

-
Страна: Япония
Год выпуска: 2012 г.
Жанр: приключения, мистика, этти, комедия, демоны
Тип: OVA
Продолжительность: 2 эп, ~24 мин. серия
Режиссер: Янагисава Тэцуя
Студия: TNK

-
Описание:
Приключения молодого Иссея продолжаются. Вскоре после событий второго ТВ сезона, дочь рода Гремори получает известия о том, что из Ада вырвался демон с странными наклонностями. Сбежавший от своего хозяина, теперь должен быть наказан.
В тот же день Риас Гремори с легкостью приводит приговор в действие. Но есть одна проблема, которая связана с недавним визитом демона. Этот демон не так прост, как показалось на первый взгляд. Он оказался алхимиком и смог вывести гибрид насекомоядного растения и дракона, который бродит где-то рядом. В это же время из школы начинают пропадать девушки с большой грудью. Это серьезно беспокоит мужское население школы, ведь все меньше становится услады для их глаз.
Риас Гремори так же под угрозой, а верному Иссею вновь придется встать на защиту президента, прогнав похотливые мысли о ее груди прочь. Но так ли это легко, как кажется?
Takinobi

-
Доп. информация:© Hollow, World Art-
Качество: BDRemux
Тип релиза: Без хардсаба
Формат видео: M2TS
Видео: AVC 1920x1080;Hi8p; ~ 27.4 Mbps; max 48.0 Mbps ; 23.976 fps
Аудио: PCM 48000Hz stereo,1536kbps, 16bit Язык Японский
Аудио:RUS 1-3 (ext): AC3, 48000Hz, 2ch, ~192 Kbps
-

Озвучка:RUS(ext)Подробные тех. данные
ОбщееИдентификатор : 0 (0x0)Полное имя : H:\Аниме BDRemux 1080p\High School DxD\High School DxD OVA\High School DxD OVA 01.m2tsФормат : BDAVФормат/Информация : Blu-ray VideoРазмер файла : 5,00 ГбайтПродолжительность : 23 м.Режим общего битрейта : ПеременныйОбщий поток : 30,2 Мбит/секМаксимальный общий битрейт : 48,0 Мбит/сек
ВидеоИдентификатор : 4113 (0x1011)Идентификатор меню : 1 (0x1)Формат : AVCФормат/Информация : Advanced Video CodecПрофиль формата : High@L4.1Параметр CABAC формата : ДаПараметр ReFrames формата : 2 кадраИдентификатор кодека : 27Продолжительность : 23 м.Вид битрейта : ПеременныйБитрейт : 27,4 Мбит/секМаксимальный битрейт : 37,0 Мбит/секШирина : 1920 пикселейВысота : 1080 пикселейСоотношение сторон : 16:9Частота кадров : 23,976 кадра/секЦветовое пространство : YUVСубдискретизация насыщенности : 4:2:0Битовая глубина : 8 битТип развёртки : ПрогрессивнаяБит/(Пиксели*Кадры) : 0.552Размер потока : 4,54 Гбайт (91%)Основные цвета : BT.709Характеристики трансфера : BT.709Коэффициенты матрицы : BT.709
АудиоИдентификатор : 4352 (0x1100)Идентификатор меню : 1 (0x1)Формат : PCMПараметр Endianness формата : BigПараметр Sign формата : SignedРежим смешивания : Blu-rayИдентификатор кодека : 128Продолжительность : 23 м.Вид битрейта : ПостоянныйБитрейт : 1536 Кбит/секКаналы : 2 каналаРасположение каналов : Front: L RЧастота : 48,0 КГцБитовая глубина : 16 битРазмер потока : 260 Мбайт (5%)
Аудио:RUS(ext)Идентификатор : 1Формат : AACФормат/Информация : Advanced Audio CodecПрофиль формата : LCИдентификатор кодека : A_AACПродолжительность : 23 м.Каналы : 2 каналаРасположение каналов : Front: L RЧастота : 48,0 КГцМетод сжатия : С потерямиЯзык : RussianDefault : ДаForced : Нет
Список эпизодов
High School DxD OVA
01. Boobs Bloom!
02. I Wish For Boobs!
ОтличияСкриншоты

_________________
Показать сообщения:    

Текущее время: Сегодня 20:05

Часовой пояс: GMT



Вы не можете начинать темы
Вы не можете отвечать на сообщения
Вы не можете редактировать свои сообщения
Вы не можете удалять свои сообщения
Вы не можете голосовать в опросах
Вы не можете прикреплять файлы к сообщениям
Вы не можете скачивать файлы