Важное объявление!
У Нас Все раздачи мультитрекерные, при нуле пиров в релизах, можете смело вставать на закачку!
 
Автор Сообщение

HUNTER

Стаж:
4 года 8 месяцев
Сообщений:
62091

Репутация: 101

[+] [-]
Вне форума [Профиль] [ЛС]

Демоны да Винчи
Da Vinci's Demons
Сезон 1 / Серии 1-8 из 8

-

  • Год производства: 2013

  • Страна: США

  • Жанр: драма, приключения

  • Продолжительность: ~00:45:00

  • Кол-во серий/сезонов: Сезон 1 / Серии 1-8 из 8

  • Перевод: Профессиональный (многоголосый закадровый) (AlexFilm)

  • Субтитры: Отсутствуют-
  • Режиссер: Дэвид С. Гойер, Джейми Пэйн, Пол Уилмсхёрст-
  • В ролях: Том Райли, Лаура Хэддок, Блейк Ритсон, Эллиот Кауэн, Лара Пулвер, Грегг Чиллин, Гера Хилмар, Эрос Влахос, Джеймс Фолкнер, Том Бейтман, Александр Сиддиг, Пол Вествуд, Джан Эрик Мэдсен, Джеймс Бриэн
    -
  • Описание: В мире, где мысль и вера находятся под контролем, один человек борется за то, чтобы сделать знания доступными для всех.
    Не рассказанная история трагичной жизни Леонардо да Винчи раскрывает портрет молодого человека, которого мучает дар гения. Он - еретик, жаждущий раскрыть ложь религии. Бунтарь, стремящийся низвергнуть элитарное общество. Незаконнорожденный сын, требующий от своего отца признания его прав.
    Он оказывается посреди разразившегося урагана страстей, который спал веками. Внутри конфликта между правдой и ложью, религией и интеллектом, прошлым и будущим. Его стремления используются против него противоборствующими силами того времени, вовлекая его в соблазнительную игру, в которой те, кто презирает его ум, нуждаются в нём больше всего.
    Леонардо должен вступить в конфронтацию с теми, кто использует историю, чтобы скрыть истину. Вооружённый лишь собственным гением да Винчи в одиночку противостоит тьме как внутри, так и снаружи.
    Перед лицом неопределённости будущего его поход за знаниями едва не становится для него погибелью, когда он переходит за грань своего здравомыслия. Да Винчи, словно в омут с головой, уходит в собственные гениальные идеи, воплотив которые, становится необоримой силой, вытаскивающей из темноты и поворачивающей к свету целую эпоху.
    Его история становится зеркалом для нашего мира, зовущее всех нас на бой за свободное будущее.
    -
  • Качество видео: HDTV 1080i

  • Формат видео: ts

  • Видео кодек: H.264

  • Аудио кодек: AC3

  • Видео: 1920х1080 (16:9), 29.970 fps, ~11.3 Mbps, 0.183 bit/pixel

  • Аудио#1: 48 kHz, AC3 Dolby Digital, 3/2 (L,C,R,l,r) + LFE ch, ~384.00 kbps avg (AlexFilm)

  • Аудио#2: 48 kHz, AC3 Dolby Digital, 3/2 (L,C,R,l,r) + LFE ch, ~384.00 kbps avg

Скриншоты

MediaInfo

Код: copyText_writeLink('this.parentNode.parentNode.nextSibling.nextSibling');
General
ID : 1 (0x1)
Complete name : D:\Торенты\Da.Vincis.Demons.S01.1080i.HDTV.AlexFilm\Da.Vincis.Demons.S01E02.1080i.HDTV.AlexFilm.ts
Format : MPEG-TS
File size : 4.60 GiB
Duration : 58mn 43s
Overall bit rate mode : Variable
Overall bit rate : 11.2 Mbps
Maximum Overall bit rate : 35.5 Mbps
Video
ID : 4113 (0x1011)
Menu ID : 1 (0x1)
Format : MPEG Video
Format version : Version 2
Format profile : Main@High
Format settings, BVOP : Yes
Format settings, Matrix : Custom
Codec ID : 2
Duration : 58mn 43s
Bit rate mode : Variable
Bit rate : 9 876 Kbps
Maximum bit rate : 38.8 Mbps
Width : 1 920 pixels
Height : 1 080 pixels
Display aspect ratio : 16:9
Frame rate : 29.970 fps
Color space : YUV
Chroma subsampling : 4:2:0
Bit depth : 8 bits
Compression mode : Lossy
Bits/(Pixel*Frame) : 0.159
Stream size : 4.05 GiB (88%)
Audio #1
ID : 4352 (0x1100)
Menu ID : 1 (0x1)
Format : AC-3
Format/Info : Audio Coding 3
Mode extension : CM (complete main)
Format settings, Endianness : Big
Codec ID : 129
Duration : 58mn 43s
Bit rate mode : Constant
Bit rate : 384 Kbps
Channel(s) : 6 channels
Channel positions : Front: L C R, Side: L R, LFE
Sampling rate : 48.0 KHz
Bit depth : 16 bits
Compression mode : Lossy
Stream size : 161 MiB (3%)
Language : Russian
Audio #2
ID : 4353 (0x1101)
Menu ID : 1 (0x1)
Format : AC-3
Format/Info : Audio Coding 3
Mode extension : CM (complete main)
Format settings, Endianness : Big
Codec ID : 129
Duration : 58mn 43s
Bit rate mode : Constant
Bit rate : 384 Kbps
Channel(s) : 6 channels
Channel positions : Front: L C R, Side: L R, LFE
Sampling rate : 48.0 KHz
Bit depth : 16 bits
Compression mode : Lossy
Delay relative to video : 5ms
Stream size : 161 MiB (3%)
Language : English
Text #1
ID : 4113 (0x1011)-CC1
Menu ID : 1 (0x1)
Format : EIA-608
Muxing mode : A/53 / DTVCC Transport
Muxing mode, more info : Muxed in Video #1
Duration : 58mn 43s
Bit rate mode : Constant
Stream size : 0.00 Byte (0%)
Text #2
ID : 4113 (0x1011)-1
Menu ID : 1 (0x1)
Format : EIA-708
Muxing mode : A/53 / DTVCC Transport
Muxing mode, more info : Muxed in Video #1
Duration : 58mn 43s
Bit rate mode : Constant
Stream size : 0.00 Byte (0%)

Внимание! Раздача ведётся путём добавления новых серий

Внимание! Раздача ведётся путём добавления новых серий; при каждом добавлении создётся новый торрент. Чтобы начать докачку новой серии, пользователям необходимо сделать следующее:
  • остановить скачивание,
  • удалить старый торрент у себя из клиента (старые серии удалять не надо),
  • скачать новый торрент и запустить его у себя в клиенте вместо старого, при этом указать клиенту путь в старую папку куда и должно происходить скачивание новых серий.
Ваш клиент при этом должен произвести хеширование (проверку) старой папки (если не производит сам - помогите ему сделать это), и будет докачивать только те серии которых у вас ещё нет. Старые серии при этом не удаляются, а продолжают раздаваться!
Eсли вы уже удалили старые серии, то предотвратить повторную закачку старых серий можно, отжав галочку в соответсвующих местах при запуске нового торрента. По возможности, желательно не удалять старые серии как можно дольше, чтобы релизёр не столько продолжал раздавать старые серии, а смог сконцентрироваться на новых.

_________________
Показать сообщения:    

Текущее время: Сегодня 20:09

Часовой пояс: GMT



Вы не можете начинать темы
Вы не можете отвечать на сообщения
Вы не можете редактировать свои сообщения
Вы не можете удалять свои сообщения
Вы не можете голосовать в опросах
Вы не можете прикреплять файлы к сообщениям
Вы не можете скачивать файлы
Наши партнеры: интернет магазин Ивановского трикотажа textilla.ru