Важное объявление!
У Нас Все раздачи мультитрекерные, при нуле пиров в релизах, можете смело вставать на закачку!
 
Автор Сообщение

HUNTER

Стаж:
4 года 8 месяцев
Сообщений:
62091

Репутация: 101

[+] [-]
Вне форума [Профиль] [ЛС]


Дельго
Delgo
-

  • Год производства: 2008

  • Страна: USA

  • Жанр: мультфильм, фэнтези, мелодрама, комедия, приключения

  • Продолжительность: 1:37:28

  • Перевод: Профессиональный (многоголосый закадровый)

  • Субтитры: Отсутствуют-
  • Режиссер: Марк Ф. Адлер, Джейсон Морер / Marc F. Adler, Jason Maurer
    -
  • Описание: В экзотическом мире живут две расы: люди-черепахи локки и люди-бабочки норны. Локки правят землей, норны - небом, поэтому
    живут они раздельно, в состоянии хрупкого мира. И все шло тихо-мирно, пока у Дельго, наивного, мечтательного подростка,
    не возникли проблемы личного характера. Его обвинили в преступлении, которого он, как водится, не совершал. Благополучно
    сбежав из тюрьмы, Дельго узнаёт, что миру грозит серьёзный конфликт между локки и норнами, и теперь юному мечтателю
    необходимо при помощи отряда своих друзей объединить две столь различные расы против общего врага...
    -
  • Качество видео: BDRip 1080p

  • Формат видео: mkv

  • Видео кодек: H264

  • Аудио кодек: AC3

  • Видео: 1920x1080 (16:9), 23.976 fps, 6 852 Kbps, 0.130 bit/pixel

  • Аудио: 48 kHz, AC3 6 ch ~384 kbps avg-
  • Автор рипа: falco
-

Доп. информация

Скриншоты

MediaInfo

Код: copyText_writeLink('this.parentNode.parentNode.nextSibling.nextSibling');
General
Unique ID : 182293372654144628351045598458837814458 (0x89246D2F7BDCB2B2B46FAAC167F14CBA)
Complete name : D:\Торенты\Delgo.2008.BDRip.1080p.falco.mkv
Format : Matroska
Format version : Version 4 / Version 2
File size : 4.28 GiB
Duration : 1h 29mn
Overall bit rate : 6 852 Kbps
Encoded date : UTC 2013-07-31 13:52:43
Writing application : mkvmerge v6.3.0 ('You can't stop me!') built on Jun 28 2013 20:09:41
Writing library : libebml v1.3.0 + libmatroska v1.4.0
Video
ID : 1
Format : AVC
Format/Info : Advanced Video Codec
Format profile : [url=mailto:High@L4.1]High@L4.1[/url]
Format settings, CABAC : Yes
Format settings, ReFrames : 4 frames
Codec ID : V_MPEG4/ISO/AVC
Duration : 1h 29mn
Bit rate : 6 468 Kbps
Width : 1 920 pixels
Height : 1 080 pixels
Display aspect ratio : 16:9
Frame rate : 23.976 fps
Color space : YUV
Chroma subsampling : 4:2:0
Bit depth : 8 bits
Scan type : Progressive
Bits/(Pixel*Frame) : 0.130
Stream size : 3.95 GiB (92%)
Writing library : x264 core 130 r2273 b3065e6
Encoding settings : cabac=1 / ref=4 / deblock=1:-1:-1 / analyse=0x3:0x113 / me=umh / subme=7 / psy=1 / psy_rd=1.00:0.20 / mixed_ref=1 / me_range=16 / chroma_me=1 / trellis=2 / 8x8dct=1 / cqm=0 / deadzone=21,11 / fast_pskip=0 / chroma_qp_offset=-3 / threads=6 / lookahead_threads=1 / sliced_threads=0 / nr=0 / decimate=0 / interlaced=0 / bluray_compat=0 / constrained_intra=0 / bframes=3 / b_pyramid=2 / b_adapt=2 / b_bias=0 / direct=3 / weightb=1 / open_gop=0 / weightp=2 / keyint=250 / keyint_min=23 / scenecut=40 / intra_refresh=0 / rc_lookahead=50 / rc=2pass / mbtree=1 / bitrate=6468 / ratetol=1.0 / qcomp=0.60 / qpmin=0 / qpmax=69 / qpstep=4 / cplxblur=20.0 / qblur=0.5 / vbv_maxrate=50000 / vbv_bufsize=50000 / nal_hrd=none / ip_ratio=1.40 / aq=1:1.00
Default : Yes
Forced : No
Audio
ID : 2
Format : AC-3
Format/Info : Audio Coding 3
Mode extension : CM (complete main)
Format settings, Endianness : Big
Codec ID : A_AC3
Duration : 1h 29mn
Bit rate mode : Constant
Bit rate : 384 Kbps
Channel(s) : 6 channels
Channel positions : Front: L C R, Side: L R, LFE
Sampling rate : 48.0 KHz
Bit depth : 16 bits
Compression mode : Lossy
Stream size : 246 MiB (6%)
Title : Профессиональный (многоголосый закадровый)
Language : Russian
Default : Yes
Forced : No

_________________
Показать сообщения:    

Текущее время: Сегодня 13:40

Часовой пояс: GMT



Вы не можете начинать темы
Вы не можете отвечать на сообщения
Вы не можете редактировать свои сообщения
Вы не можете удалять свои сообщения
Вы не можете голосовать в опросах
Вы не можете прикреплять файлы к сообщениям
Вы не можете скачивать файлы
Наши партнеры: интернет магазин Ивановского трикотажа textilla.ru