Важное объявление!
У Нас Все раздачи мультитрекерные, при нуле пиров в релизах, можете смело вставать на закачку!
 
Автор Сообщение

HUNTER

Стаж:
4 года 10 месяцев
Сообщений:
65473

Репутация: 101

[+] [-]
Вне форума [Профиль] [ЛС]

Дело было в Пенькове- -Страна: СССР
Жанр: мелодрама, любовная драма
Год выпуска: 1957
Продолжительность: 01:34:13
Перевод: не требуется
Cубтитры: отсутствуют
Оригинальная аудиодорожка: русский
Режиссёр: Станислав Ростоцкий
Актёры: Майя Менглет, Вячеслав Тихонов, Светлана Дружинина, Владимир Ратомский, Валентина Телегина, Анатолий Кубацкий, Иван Рыжов, Юрий Медведев, Александра Харитонова, Юрий Мартынов, Елена Мельникова, и др.
Аннотация: В деревне Пеньково тракторист Матвей изнемогает от усталости, безделья и скуки... Но есть в его жизни хоть какое-то разнообразие - его любит Лариса, дочь председателя колхоза, Матвей тоже любит Ларису. Любви этой отец Ларисы не одобряет, однако не смотря на это сыграли они свадьбу... Но незадолго до свадьбы приехала в деревню из Ленинграда девушка Тоня, новый механик по животным... Пока суть да дело, вдруг Матвей за собой замечает, что не ровно дышит к девушке Тоне. Однако, это встречает сопротивление со стороны его супруги, и вызывает массу толков и пересудов со стороны деревенского народонаселения... Местная самогонщица, держательница притона и известная скандалистка Алевтина, берётся разрушить любовный треугольник...
Меню: русский, статичное не озвученное
Издатель диска: RUSCICO

Тип релиза: DVD5
Контейнер: DVD-Video
Видео: MPEG-2, VBR 5648 - 8500 Kbps, 720 x 576 pixels 4:3, 25.000 fps PAL, 0.545 bit/pixel
Аудио: AC-3 Dolby Digital, CBR 384 kbps 6 ch (Front: L C R, Side: L R, LFE) 48.0 KHz

DVDInfo

Title: Дело_было_в_Пенькове_1957_DVD5_[rutracker.org]Size: 4.13 Gb ( 4 333 566,00 KBytes ) - DVD-5Enabled regions: 1, 2, 3, 4, 5, 6, 7, 8
VTS_01 : Play Length: 00:00:31 Video: PAL 4:3 (720x576) VBR Audio: English, AC3, 3/2 (L,C,R,SL,SR)+LFE ch, 448 kbps, Delay 9999 mSec
VTS_02 : Play Length: 01:34:13 Video: PAL 4:3 (720x576) VBR Audio: Russian, AC3, 3/2 (L,C,R,SL,SR)+LFE ch, 384 kbps, Delay 0 mSec
* Menus Information *
VIDEO_TS MenuVideo: PAL 4:3 (720x576) VBREnglish Language Unit : Title Menu
VTS_01 MenuVideo: PAL 4:3 (720x576) VBREnglish Language Unit : Root Menu
VTS_02 MenuVideo: PAL 4:3 (720x576) VBREnglish Language Unit : Root Menu

MediaInfo - VTS_02_1.VOB

ОбщееПолное имя : E:\Дело_было_в_Пенькове_1957_DVD5_[rutracker.org]\VIDEO_TS\VTS_02_1.VOBФормат : MPEG-PSРазмер файла : 1024 МбайтПродолжительность : 23 м.Режим общего битрейта : ПеременныйОбщий поток : 6155 Кбит/сек
ВидеоИдентификатор : 224 (0xE0)Формат : MPEG VideoВерсия формата : Version 2Профиль формата : Main@MainПараметр BVOP формата : ДаПараметр матрицы формата : ВыборочнаяПараметр GOP формата : M=3, N=12Format_Settings_PictureStructure : FrameПродолжительность : 23 м.Вид битрейта : ПеременныйБитрейт : 5648 Кбит/секМаксимальный битрейт : 8500 Кбит/секШирина : 720 пикселейВысота : 576 пикселейСоотношение сторон : 4:3Частота кадров : 25,000 кадров/секСтандарт вещания : PALЦветовое пространство : YUVСубдискретизация насыщенности : 4:2:0Битовая глубина : 8 битТип развёртки : ЧересстрочнаяПорядок развёртки : Верхнее поле первоеМетод сжатия : С потерямиБит/(Пиксели*Кадры) : 0.545Временной код первого кадра : 00:00:00:00Оригинал временного кода : Group of pictures headerРазмер потока : 940 Мбайт (92%)Gop_OpenClosed_FirstFrame : Closed
АудиоИдентификатор : 189 (0xBD)-128 (0x80)Формат : AC-3Формат/Информация : Audio Coding 3Расширение режима : CM (complete main)Параметр Endianness формата : BigРежим смешивания : DVD-VideoПродолжительность : 23 м.Вид битрейта : ПостоянныйБитрейт : 384 Кбит/секКаналы : 6 каналовРасположение каналов : Front: L C R, Side: L R, LFEЧастота : 48,0 КГцБитовая глубина : 16 битМетод сжатия : С потерямиРазмер потока : 63,9 Мбайт (6%)
Меню

Скриншоты меню

Время раздачи - по возможности.

_________________
Показать сообщения:    

Текущее время: Сегодня 06:11

Часовой пояс: GMT



Вы не можете начинать темы
Вы не можете отвечать на сообщения
Вы не можете редактировать свои сообщения
Вы не можете удалять свои сообщения
Вы не можете голосовать в опросах
Вы не можете прикреплять файлы к сообщениям
Вы не можете скачивать файлы