Важное объявление!
У Нас Все раздачи мультитрекерные, при нуле пиров в релизах, можете смело вставать на закачку!
 
Автор Сообщение

HUNTER

Стаж:
4 года 6 месяцев
Сообщений:
60970

Репутация: 101

[+] [-]
Вне форума [Профиль] [ЛС]

Девчонки / Girls
Год выпуска: 2012
Страна: США
Жанр: Драма, комедия
Продолжительность: ~ 00:30:00
Перевод: Любительский (одноголосый закадровый) [Хамстер]
Русские субтитры: нет
Режиссёр: Лена Данхэм / Lena Dunham
В ролях: Лена Данхем, Эллисон Вильямс, Джемима Кирк, Зося Мамет, Адам Драйвер и другие.
Описание: Комедия рассказывает о нескольких девушках двадцатилетнего возраста, которым приходится испытывать унижения и лишь изредка знавать вкус победы.
Сэмпл: http://multi-up.com/688830
Качество: HDTVRip
Формат: AVI
Видео кодек: XviD
Аудио кодек: MP3
Видео: 624x352 (1.77:1), 23.976 fps, XviD build 63 ~1102 kbps avg, 0.21 bit/pixel
Аудио: 48 kHz, MPEG Layer 3, 2 ch, ~224.00 kbps avg

Рейтинги

Список серий

1 Pilot
2 Vagina Panic
3 All Adventurous Women Do
4 Hannah's Diary
5 Hard Being Easy
6 The Return
7 Welcome to Bushwick a.k.a. The Crackcident
8 Weirdos Need Girlfriends Too
9 Leave Me Alone
10 She Did

Отчёт MediaInfo

General
Complete name : G:\Сериалы\Girls S01 (Hamster)\Girls.S01E01.Hamster.avi
Format : AVI
Format/Info : Audio Video Interleave
File size : 304 MiB
Duration : 31mn 49s
Overall bit rate : 1 336 Kbps
Writing application : Lavf51.12.1
Writing library : VirtualDub build 32706/release
Video
Format : xvid
Codec ID : xvid
Duration : 31mn 49s
Bit rate : 1 102 Kbps
Width : 624 pixels
Height : 352 pixels
Display aspect ratio : 16:9
Frame rate : 23.976 fps
Bits/(Pixel*Frame) : 0.209
Stream size : 251 MiB (83%)
Audio
ID : 1
Format : MPEG Audio
Format version : Version 1
Format profile : Layer 3
Codec ID : 55
Codec ID/Hint : MP3
Duration : 31mn 49s
Bit rate mode : Constant
Bit rate : 224 Kbps
Channel(s) : 2 channels
Sampling rate : 48.0 KHz
Video delay : 24ms
Stream size : 51.0 MiB (17%)
Alignment : Split accross interleaves
Interleave, duration : 42 ms (1.00 video frame)
Interleave, preload duration : 500 ms

Скриншоты


_________________
Показать сообщения:    

Текущее время: Сегодня 02:20

Часовой пояс: GMT



Вы не можете начинать темы
Вы не можете отвечать на сообщения
Вы не можете редактировать свои сообщения
Вы не можете удалять свои сообщения
Вы не можете голосовать в опросах
Вы не можете прикреплять файлы к сообщениям
Вы не можете скачивать файлы
Наши партнеры: интернет магазин Ивановского трикотажа textilla.ru