Ивановский Торрент трекер
Яндекс.Погода
 

[Цитировать]
HUNTER

Девушки из Рошфора / Les Demoiselles De Rochefort / The Young Girls of Rochefort
Страна: Франция
Жанр: мюзикл
Год выпуска: 1967
Продолжительность: 02:07:07
Перевод: Профессиональный (дублированный) киностудия "Союзмультфильм"
Перевод: Профессиональный (многоголосый закадровый) 5 канал СПб
Cубтитры: русские, английские
Оригинальная аудиодорожка: французский-Режиссер: Жак Деми / Jacques Demy
В ролях: Катрин Денёв, Франсуаза Дорлеак, Джин Келли, Жак Перрен, Джордж Чакирис, Гроувер Дэйл, Мишель Пикколи, Жак Риберолль, Даниэль Дарьё, Женевьев Тенье, Анри Кремьё, Памела Харт, Лесли Норт, Рене Базар, Вероника Дювал, Пьер Кадан, Джейн Дарлинг, Джон МакДональд, Джерри Мэнли, Коннел Майлз, Ромуальд, Дороте Бланк, Венди Бэрри, Джонни Гринланд, Боб Хоу, Тони Мэннинг, Элбин Пэйрник, Жорж Бланесс, Даниэль Галль
Описание: В небольшом портовом городке живут две сестры-двойняшки - Дельфин и Соланж, которые дают уроки танцев. В одну из них влюбляется композитор-американец, в другую - моряк с прекрасным голосом...
IMDb || КиноПоиск-Тип релиза: BDRip 720p [LolHD]
Контейнер: MKV
Видео: x264/AVC, 1280x534 at 23.976 fps, 7634 kbps
Аудио#1: Russian: 48 kHz, AC3, 2.0 ch, 192 kbps |Дубляж "Союзмультфильм"
Аудио#2: Russian: 48 kHz, АС3, 2.0 ch, 192 kbps |5 канал СПб
Аудио#3: French: 48 kHz, AC3, 5.1 ch, 640 kbps
Формат субтитров: softsub (SRT)
Сэмпл

MediaInfo

General
Unique ID : 200642627362833511253061563793291653866 (0x96F25D4A5B9D7EDE869C951D1E60B2EA)
Complete name : N:\Rutracker\Девушки из Рошфора\The.Young.Girls.of.Rochefort.1967.Criterion.720p-LolHD.rutracker.mkv
Format : Matroska
Format version : Version 2
File size : 7.84 GiB
Duration : 2h 7mn
Overall bit rate : 8 834 Kbps
Movie name : Release for RuTracker
Encoded date : UTC 2014-09-17 15:23:45
Writing application : mkvmerge v5.0.1 ('Es ist Sommer') built on Nov 6 2011 16:23:40
Writing library : libebml v1.2.2 + libmatroska v1.3.0
Video
ID : 1
Format : AVC
Format/Info : Advanced Video Codec
Format profile : High@L4.1
Format settings, CABAC : Yes
Format settings, ReFrames : 12 frames
Codec ID : V_MPEG4/ISO/AVC
Duration : 2h 7mn
Bit rate : 7 634 Kbps
Width : 1 280 pixels
Height : 534 pixels
Display aspect ratio : 2.40:1
Frame rate mode : Constant
Frame rate : 23.976 fps
Color space : YUV
Chroma subsampling : 4:2:0
Bit depth : 8 bits
Scan type : Progressive
Bits/(Pixel*Frame) : 0.466
Stream size : 6.78 GiB (86%)
Title : The.Young.Girls.of.Rochefort.1967.Criterion.720p-LolHD. rutracker
Writing library : x264 core 142 r2453kMod ea0ca51
Encoding settings : cabac=1 / ref=12 / deblock=1:-3:-3 / analyse=0x3:0x133 / me=umh / subme=10 / psy=1 / fade_compensate=0.00 / psy_rd=1.05:0.00 / mixed_ref=1 / me_range=24 / chroma_me=1 / trellis=2 / 8x8dct=1 / cqm=0 / deadzone=21,11 / fast_pskip=0 / chroma_qp_offset=-2 / threads=24 / lookahead_threads=4 / sliced_threads=0 / nr=0 / decimate=0 / interlaced=0 / bluray_compat=0 / constrained_intra=0 / fgo=0 / bframes=10 / b_pyramid=2 / b_adapt=2 / b_bias=0 / direct=3 / weightb=1 / open_gop=0 / weightp=2 / keyint=250 / keyint_min=23 / scenecut=40 / intra_refresh=0 / rc=crf / mbtree=0 / crf=18.0000 / qcomp=0.70 / qpmin=0 / qpmax=69 / qpstep=4 / ip_ratio=1.20 / pb_ratio=1.20 / aq=3:0.75
Language : French
Default : Yes
Forced : No
Audio #1
ID : 2
Format : AC-3
Format/Info : Audio Coding 3
Mode extension : CM (complete main)
Format settings, Endianness : Big
Codec ID : A_AC3
Duration : 2h 7mn
Bit rate mode : Constant
Bit rate : 192 Kbps
Channel(s) : 2 channels
Channel positions : Front: L R
Sampling rate : 48.0 KHz
Bit depth : 16 bits
Compression mode : Lossy
Stream size : 175 MiB (2%)
Title : дубляж
Language : Russian
Default : Yes
Forced : No
Audio #2
ID : 3
Format : AC-3
Format/Info : Audio Coding 3
Mode extension : CM (complete main)
Format settings, Endianness : Big
Codec ID : A_AC3
Duration : 2h 7mn
Bit rate mode : Constant
Bit rate : 192 Kbps
Channel(s) : 2 channels
Channel positions : Front: L R
Sampling rate : 48.0 KHz
Bit depth : 16 bits
Compression mode : Lossy
Stream size : 175 MiB (2%)
Title : mvo
Language : Russian
Default : No
Forced : No
Audio #3
ID : 4
Format : AC-3
Format/Info : Audio Coding 3
Mode extension : CM (complete main)
Format settings, Endianness : Big
Codec ID : A_AC3
Duration : 2h 7mn
Bit rate mode : Constant
Bit rate : 640 Kbps
Channel(s) : 6 channels
Channel positions : Front: L C R, Side: L R, LFE
Sampling rate : 48.0 KHz
Bit depth : 16 bits
Compression mode : Lossy
Stream size : 582 MiB (7%)
Language : French
Default : No
Forced : No
Text #1
ID : 5
Format : UTF-8
Codec ID : S_TEXT/UTF8
Codec ID/Info : UTF-8 Plain Text
Title : forced
Language : Russian
Default : Yes
Forced : No
Text #2
ID : 6
Format : UTF-8
Codec ID : S_TEXT/UTF8
Codec ID/Info : UTF-8 Plain Text
Title : full
Language : Russian
Default : No
Forced : No
Text #3
ID : 7
Format : UTF-8
Codec ID : S_TEXT/UTF8
Codec ID/Info : UTF-8 Plain Text
Language : English
Default : No
Forced : No
Menu
00:00:00.000 : en:Chapter 01
00:14:14.270 : en:Chapter 02
00:22:32.851 : en:Chapter 03
00:28:15.569 : en:Chapter 04
00:32:19.521 : en:Chapter 05
00:36:36.486 : en:Chapter 06
00:43:47.959 : en:Chapter 07
00:48:44.380 : en:Chapter 08
00:53:31.291 : en:Chapter 09
01:03:07.158 : en:Chapter 10
01:06:46.836 : en:Chapter 11
01:14:31.050 : en:Chapter 12
01:19:40.943 : en:Chapter 13
01:28:39.314 : en:Chapter 14
01:32:52.776 : en:Chapter 15
01:41:19.949 : en:Chapter 16
01:47:51.548 : en:Chapter 17
01:52:43.507 : en:Chapter 18
02:03:31.738 : en:Chapter 19

Скриншоты

Показать сообщения:    

Текущее время: 21-Окт 13:11

Часовой пояс: UTC - 1


Вы не можете начинать темы
Вы не можете отвечать на сообщения
Вы не можете редактировать свои сообщения
Вы не можете удалять свои сообщения
Вы не можете голосовать в опросах
Вы не можете прикреплять файлы к сообщениям
Вы не можете скачивать файлы

!ВНИМАНИЕ!
Сайт не предоставляет электронные версии произведений, а занимается лишь коллекционированием и каталогизацией ссылок, присылаемых и публикуемых на форуме нашими читателями. Если вы являетесь правообладателем какого-либо представленного материала и не желаете, чтобы ссылка на него находилась в нашем каталоге, свяжитесь с нами, и мы незамедлительно удалим ее. Файлы для обмена на трекере предоставлены пользователями сайта, и администрация не несет ответственности за их содержание. Просьба не заливать файлы, защищенные авторскими правами, а также файлы нелегального содержания!