Важное объявление!
У Нас Все раздачи мультитрекерные, при нуле пиров в релизах, можете смело вставать на закачку!
 
Автор Сообщение

HUNTER

Стаж:
4 года 7 месяцев
Сообщений:
61614

Репутация: 101

[+] [-]
Вне форума [Профиль] [ЛС]

Девственники, берегитесь! / Love Bite«Чтобы выжить, нужно срочно вдуть!»
Страна: Великобритания
Жанр: комедия, фэнтези, ужасы
Год выпуска: 2012
Продолжительность: 01:27:00
Перевод: Любительский (двухголосый закадровый)
Cубтитры: нет
Режиссер: Энди де Эммони / Andy DeEmmony
В ролях: Джессика Зор, Эдвард Спелирс, Люк Паскуалино, Адам Лиз, Кирстон Вэрэйнг, Роберт Пью, Тимоти Сполл, Джой МакЭвой, Пол Бирчард, Кейт Суини
Описание: Джейми живёт в глухом приморском городке, откуда мечтает выбраться. Однажды на вечеринке появляется американка Джулиана. Она умна и совсем не похожа на местных. Но одновременно с её появлением в городе начинают пропадать подростки. Загадочный мужчина предупреждает Джейми — держись от этой девушки подальше, особенно если ты девственник.
Сэмпл: http://sendfile.su/1074510

Тип релиза: HDTV 1080i
Контейнер: TS
Видео: AVC/H.264, 1920x1080 (16:9), 6265 Кбит/сек, 25.000 fps
Аудио: русский, MP2, 2ch, 48,0 КГц, 192 Кбит/сек

MediaInfo

Общее
Идентификатор : 1 (0x1)
Полное имя : D:\Девственники, берегитесь..ts
Формат : MPEG-TS
Размер файла : 4,13 Гбайт
Продолжительность : 1 ч. 27 м.
Режим общего битрейта : Переменный
Общий поток : 6794 Кбит/сек
Максимальный общий битрейт : 35,5 Мбит/сек
Видео
Идентификатор : 4113 (0x1011)
Идентификатор меню : 1 (0x1)
Формат : AVC
Формат/Информация : Advanced Video Codec
Профиль формата : Main@L4.0
Параметр CABAC формата : Да
Параметр ReFrames формата : 3 кадра
Идентификатор кодека : 27
Продолжительность : 1 ч. 27 м.
Вид битрейта : Переменный
Битрейт : 6265 Кбит/сек
Максимальный битрейт : 40,0 Мбит/сек
Ширина : 1920 пикселей
Высота : 1080 пикселей
Соотношение сторон : 16:9
Частота кадров : 25,000 кадров/сек
Стандарт вещания : Component
Цветовое пространство : YUV
Субдискретизация насыщенности : 4:2:0
Битовая глубина : 8 бит
Тип развёртки : Чересстрочная
Порядок развёртки : Верхнее поле первое
Бит/(Пиксели*Кадры) : 0.121
Размер потока : 3,81 Гбайт (92%)
colour_range : Limited
Аудио
Идентификатор : 4352 (0x1100)
Идентификатор меню : 1 (0x1)
Формат : MPEG Audio
Версия формата : Version 1
Профиль формата : Layer 2
Идентификатор кодека : 4
Продолжительность : 1 ч. 27 м.
Вид битрейта : Постоянный
Битрейт : 192 Кбит/сек
Каналы : 2 канала
Частота : 48,0 КГц
Метод сжатия : С потерями
Размер потока : 119 Мбайт (3%)
Язык : Russian

Скриншоты с названием фильма

Скриншоты


_________________
Показать сообщения:    

Текущее время: Сегодня 07:01

Часовой пояс: GMT



Вы не можете начинать темы
Вы не можете отвечать на сообщения
Вы не можете редактировать свои сообщения
Вы не можете удалять свои сообщения
Вы не можете голосовать в опросах
Вы не можете прикреплять файлы к сообщениям
Вы не можете скачивать файлы
Наши партнеры: интернет магазин Ивановского трикотажа textilla.ru