Ивановский Торрент трекер
Яндекс.Погода
 

[Цитировать]
HUNTER

Девочки Фитнесса.Кокетливая Программа. / Flirty Girl Fitness-
Год выпуска: 2008
Страна: США
Сайт производителя: отсутствует
Тематика: фитнес,аэробика
Тип материала: Обучающее видео-Продолжительность: видео#1 00:26:28, видео#2 00:40:56
Автор: Керри Крист, Колен Крист-Язык: Английский
Субтитры: отсутствуют-Описание: Созданный Керри и Коленом Криста , Кокетливая Программа Девочки Фитнесса - забавный и захватывающий способ стать стройной и открыть Вашу внутреннюю примадонну. Данный видео курс, разминка показывает классические и сексуальные движения под хорошую музыку превращая их в настоящий фитнес, который улучшит Вашу сердечно сосудистую систему и откорректирует Вашу фигуру. В конце мы соединим танец и фитнес в одно целое, интересное и увлекательное. Это новый уровень Женского фитнеса! Так как он не только корректирует Вашу фигуру но и показывает Вам некоторые очень сексуальные танцевальные движения. Данный комплекс уделяет внимание растяжке, пластика это очень важно. После этого комплекса упражнений Вы почувствуете себя примадонной . Пришло время заменить рутину тренировок на забавный, сексуальный, танцевальный фитнес. Упражнения со стулом приспособлены, чтобы помочь Вам сжечь жир и откорректировать фигуру. Эти упражнения превращают простой стул в многофункциональный тренажер, Данный видео курс рассчитан на все части тела от головы до пят. Результат: помогает сжечь жир, откорректировать фигуру.Плюс бонус, Обучение искусству стриптиза со стулом.-Качество: DVDRip
Формат: AVI
Видео кодек: XviD
Аудио кодек: MP3
Видео: Видео#1: 512x384 (1.33:1),29.970 fps,XviD MPEG-4,1983 kbps avg,0.34 bit/pixel
Видео#2: 512x384 (1.33:1),23.976 fps,XviD MPEG-4,1857 kbps avg,0.39 bit/pixel
Аудио: 44.100 kHz,MPEG Layer 3, 2 ch,128.00 kbps avg-

MediaInfo

Код: copyText_writeLink('this.parentNode.parentNode.nextSibling.nextSibling'); General
Complete name : E:\Закачки\part_2_[tfile.ru]\flirty_girl_fitness_chair_dance.AVI
Format : AVI
Format/Info : Audio Video Interleave
File size : 402 MiB
Duration : 26mn 28s
Overall bit rate : 2 120 Kbps
Video
ID : 0
Format : MPEG-4 Visual
Format profile : Simple@L3
Format settings, BVOP : No
Format settings, QPel : No
Format settings, GMC : No warppoints
Format settings, Matrix : Default (H.263)
Codec ID : XVID
Codec ID/Hint : XviD
Duration : 26mn 28s
Bit rate : 1 984 Kbps
Width : 512 pixels
Height : 384 pixels
Display aspect ratio : 4:3
Frame rate : 29.970 fps
Color space : YUV
Chroma subsampling : 4:2:0
Bit depth : 8 bits
Scan type : Progressive
Compression mode : Lossy
Bits/(Pixel*Frame) : 0.337
Stream size : 376 MiB (94%)
Writing library : ZJMedia MPEG Encoder
Audio
ID : 1
Format : MPEG Audio
Format version : Version 1
Format profile : Layer 3
Mode : Joint stereo
Mode extension : MS Stereo
Codec ID : 55
Codec ID/Hint : MP3
Duration : 26mn 28s
Bit rate mode : Constant
Bit rate : 128 Kbps
Channel(s) : 2 channels
Sampling rate : 44.1 KHz
Compression mode : Lossy
Stream size : 24.2 MiB (6%)
Alignment : Split accross interleaves
Interleave, duration : 968 ms (29.00 video frames)
- -


Показать сообщения:    

Текущее время: 16-Дек 13:08

Часовой пояс: UTC ± 0


Вы не можете начинать темы
Вы не можете отвечать на сообщения
Вы не можете редактировать свои сообщения
Вы не можете удалять свои сообщения
Вы не можете голосовать в опросах
Вы не можете прикреплять файлы к сообщениям
Вы не можете скачивать файлы

!ВНИМАНИЕ!
Сайт не предоставляет электронные версии произведений, а занимается лишь коллекционированием и каталогизацией ссылок, присылаемых и публикуемых на форуме нашими читателями. Если вы являетесь правообладателем какого-либо представленного материала и не желаете, чтобы ссылка на него находилась в нашем каталоге, свяжитесь с нами, и мы незамедлительно удалим ее. Файлы для обмена на трекере предоставлены пользователями сайта, и администрация не несет ответственности за их содержание. Просьба не заливать файлы, защищенные авторскими правами, а также файлы нелегального содержания!