Важное объявление!
У Нас Все раздачи мультитрекерные, при нуле пиров в релизах, можете смело вставать на закачку!
 
Автор Сообщение

HUNTER

Стаж:
4 года 8 месяцев
Сообщений:
62034

Репутация: 101

[+] [-]
Вне форума [Профиль] [ЛС]

Девочка против монстра / Девушка против монстра / Girl Vs. Monster
Страна: США, Канада
Жанр: фантастика, комедия, семейный
Год выпуска: 2012
Продолжительность: 01:24:38
Перевод: Профессиональный (дублированный) Disney
Cубтитры: нет
Оригинальная аудиодорожка: английский
Режиссер: Стюарт Гиллард / Stuart Gillard
В ролях: Оливия Холт, Трэйси Даусон, Jonathan Hers, Люк Бенвард, Douglas Abel, Стефано Джулианетти, Дженнифер Аспен, Donald Heng, Адам Чэмберс, Дженеа Чарпентье
Описание: Однажды в канун праздника Хэллоуин, Скайли - девочка-подросток узнает, что она является охотником на монстров в 5 поколении. На праздник она с друзьями решает устроить вечеринку с выступлением рок-группы. Ее родители против этого, и закрывают девчонку в доме, закрыв все выходы и включив сигнализацию. Пытаясь сбежать на вечеринку, она отключает сигнализацию и случайно выпускает томящихся в подвале монстров на свободу...
Сэмпл: http://multi-up.com/995569
Тип релиза: HDTV 1080p
Контейнер: MKV
Видео: AVC, 1920x1080 (16/9), 25.000 fps, 6 367 Kbps (0.123 bit/pixel)
Аудио: AC-3, 48.0 KHz, 2 ch, 192 Kbps, CBR (Russian)
Аудио 2: AC-3, 48.0 KHz, 2 ch, 192 Kbps, CBR (English)

MediaInfo

Общее
Уникальный идентификатор : 182748140714432736766713540825916662972 (0x897C02FB62135E26B147F59A6EB864BC)
Полное имя : K:\Girl.Vs.Monster.2012.1080p.Rus.Eng.mkv
Формат : Matroska
Версия формата : Version 2
Размер файла : 4,07 Гбайт
Продолжительность : 1 ч. 24 м.
Общий поток : 6888 Кбит/сек
Дата кодирования : UTC 2014-08-30 07:22:27
Программа кодирования : mkvmerge v7.1.0 ('Good Love') 32bit built on Jul 27 2014 12:59:18
Библиотека кодирования : libebml v1.3.0 + libmatroska v1.4.1
Видео
Идентификатор : 1
Формат : AVC
Формат/Информация : Advanced Video Codec
Профиль формата : High@L4.1
Параметр CABAC формата : Да
Параметр ReFrames формата : 4 кадра
Идентификатор кодека : V_MPEG4/ISO/AVC
Продолжительность : 1 ч. 24 м.
Битрейт : 6367 Кбит/сек
Ширина : 1920 пикселей
Высота : 1080 пикселей
Соотношение сторон : 16:9
Режим частоты кадров : Постоянный
Частота кадров : 25,000 кадров/сек
Цветовое пространство : YUV
Субдискретизация насыщенности : 4:2:0
Битовая глубина : 8 бит
Тип развёртки : Прогрессивная
Бит/(Пиксели*Кадры) : 0.123
Размер потока : 3,76 Гбайт (92%)
Заголовок : Девочка против монстра / Девушка против монстра / Girl Vs. Monster (2012)
Default : Да
Forced : Нет
Основные цвета : BT.709
Характеристики трансфера : BT.709
Коэффициенты матрицы : BT.709
Аудио #1
Идентификатор : 2
Формат : AC-3
Формат/Информация : Audio Coding 3
Расширение режима : CM (complete main)
Параметр Endianness формата : Big
Идентификатор кодека : A_AC3
Продолжительность : 1 ч. 24 м.
Вид битрейта : Постоянный
Битрейт : 192 Кбит/сек
Каналы : 2 канала
Расположение каналов : Front: L R
Частота : 48,0 КГц
Битовая глубина : 16 бит
Метод сжатия : С потерями
Задержка видео : -200 мс.
Размер потока : 116 Мбайт (3%)
Заголовок : Профессиональный (дублированный) Disney
Язык : Russian
Default : Да
Forced : Нет
Аудио #2
Идентификатор : 3
Формат : AC-3
Формат/Информация : Audio Coding 3
Расширение режима : CM (complete main)
Параметр Endianness формата : Big
Идентификатор кодека : A_AC3
Продолжительность : 1 ч. 24 м.
Вид битрейта : Постоянный
Битрейт : 192 Кбит/сек
Каналы : 2 канала
Расположение каналов : Front: L R
Частота : 48,0 КГц
Битовая глубина : 16 бит
Метод сжатия : С потерями
Размер потока : 116 Мбайт (3%)
Заголовок : Английский
Язык : English
Default : Нет
Forced : Нет

Скриншоты


_________________
Показать сообщения:    

Текущее время: Сегодня 23:51

Часовой пояс: GMT



Вы не можете начинать темы
Вы не можете отвечать на сообщения
Вы не можете редактировать свои сообщения
Вы не можете удалять свои сообщения
Вы не можете голосовать в опросах
Вы не можете прикреплять файлы к сообщениям
Вы не можете скачивать файлы
Наши партнеры: интернет магазин Ивановского трикотажа textilla.ru