Важное объявление!
У Нас Все раздачи мультитрекерные, при нуле пиров в релизах, можете смело вставать на закачку!
 
Автор Сообщение

HUNTER

Стаж:
4 года 7 месяцев
Сообщений:
61521

Репутация: 101

[+] [-]
Вне форума [Профиль] [ЛС]

Девочка-волшебница Мадока (Фильм 1) / Mahou Shoujo Madoka Magica: Hajimari no Monogatari
Год выпуска: 2012
Страна: Япония
Жанр: махо-сёдзё, ужасы, драма
Тип: Movie
Продолжительность: 2ч. 11мин.
Озвучка:
  • двухголосая от Emeri & loster01
    Русские субтитры: есть (отдельным файлом, формат .ass, перевод - Nesitach, Stan WarHammer)
    Хардсаб: Нет-Режиссер: Симбо Акиюки
    Студия: Shaft
    Описание:Первый фильм из трилогии. Является пересказом событий сериала (первые восемь серий).
    Качество: Blu-Ray Remux
    Формат: MKV
    Видео кодек: AVC
    Аудио кодек: DTS
    Видео: 1920x1080 (16:9) 23,976 fps ~34.5 Mbps 8bit
    Аудио:
    Jap 1 DTS, 48000Hz, ~768 kbps 2ch
    Jap 2 DTS, 48000Hz, ~1509 kbps 5.1ch
    RUS (ext) AC3, 48000Hz, ~384 Kbps, 5.1ch
    Звуковая дорожка взята из этой раздачи.
    В качестве бонуса - сканы БД и буклетов.
    Чаптеры присутствуют.
    MediaInfo
    Общее
    Уникальный идентификатор : 170784903703896338147451917633727979244 (0x807BF9DBBE36D1669AC4EC96EFC35EEC)
    Полное имя : M:\incoming\Mahou Shoujo Madoka Magica Movie 1\[anti-raws]Mahou Shoujo Madoka Magica Movie 1 Hajimari no Monogatari[BDRemux].mkv
    Формат : Matroska
    Версия формата : Version 4 / Version 2
    Размер файла : 34,4 Гбайт
    Продолжительность : 2 ч. 11 м.
    Режим общего битрейта : Переменный
    Общий поток : 37,6 Мбит/сек
    Дата кодирования : UTC 2014-05-13 18:24:23
    Программа кодирования : mkvmerge v6.9.1 ('Blue Panther') 64bit built on Apr 18 2014 18:23:38
    Библиотека кодирования : libebml v1.3.0 + libmatroska v1.4.1
    Видео
    Идентификатор : 3
    Формат : AVC
    Формат/Информация : Advanced Video Codec
    Профиль формата : High@L4.1
    Параметр CABAC формата : Да
    Параметр ReFrames формата : 4 кадра
    Идентификатор кодека : V_MPEG4/ISO/AVC
    Продолжительность : 2 ч. 11 м.
    Вид битрейта : Переменный
    Битрейт : 34,6 Мбит/сек
    Максимальный битрейт : 37,5 Мбит/сек
    Ширина : 1920 пикселей
    Высота : 1080 пикселей
    Соотношение сторон : 16:9
    Режим частоты кадров : Постоянный
    Частота кадров : 23,976 кадра/сек
    Цветовое пространство : YUV
    Субдискретизация насыщенности : 4:2:0
    Битовая глубина : 8 бит
    Тип развёртки : Прогрессивная
    Бит/(Пиксели*Кадры) : 0.695
    Размер потока : 31,7 Гбайт (92%)
    Default : Нет
    Forced : Нет
    Аудио #1
    Идентификатор : 1
    Формат : DTS
    Формат/Информация : Digital Theater Systems
    Режим : 16
    Параметр Endianness формата : Big
    Идентификатор кодека : A_DTS
    Продолжительность : 2 ч. 11 м.
    Вид битрейта : Постоянный
    Битрейт : 768 Кбит/сек
    Каналы : 2 канала
    Расположение каналов : Front: L R
    Частота : 48,0 КГц
    Битовая глубина : 24 бит
    Метод сжатия : С потерями
    Размер потока : 721 Мбайт (2%)
    Заголовок : 2.0 DTS
    Язык : Japanese
    Default : Да
    Forced : Нет
    Аудио #2
    Идентификатор : 2
    Формат : DTS
    Формат/Информация : Digital Theater Systems
    Режим : 16
    Параметр Endianness формата : Big
    Идентификатор кодека : A_DTS
    Продолжительность : 2 ч. 11 м.
    Вид битрейта : Постоянный
    Битрейт : 1509 Кбит/сек
    Каналы : 6 каналов
    Расположение каналов : Front: L C R, Side: L R, LFE
    Частота : 48,0 КГц
    Битовая глубина : 24 бит
    Метод сжатия : С потерями
    Размер потока : 1,38 Гбайт (4%)
    Заголовок : 5.1 DTS
    Язык : Japanese
    Default : Нет
    Forced : Нет
    Меню
    00:00:00.000 : en:00:00:00.000
    00:03:04.351 : en:00:03:04.351
    00:04:43.450 : en:00:04:43.450
    00:06:03.572 : en:00:06:03.572
    00:10:37.262 : en:00:10:37.262
    00:12:28.414 : en:00:12:28.414
    00:19:05.061 : en:00:19:05.061
    00:22:29.974 : en:00:22:29.974
    00:23:54.683 : en:00:23:54.683
    00:26:18.744 : en:00:26:18.744
    00:29:34.231 : en:00:29:34.231
    00:34:32.946 : en:00:34:32.946
    00:36:44.369 : en:00:36:44.369
    00:39:37.250 : en:00:39:37.250
    00:44:26.372 : en:00:44:26.372
    00:45:32.104 : en:00:45:32.104
    00:48:58.060 : en:00:48:58.060
    00:52:12.588 : en:00:52:12.588
    00:56:29.970 : en:00:56:29.970
    00:58:39.516 : en:00:58:39.516
    01:04:07.427 : en:01:04:07.427
    01:11:05.178 : en:01:11:05.178
    01:20:24.319 : en:01:20:24.319
    01:24:48.000 : en:01:24:48.000
    01:26:57.379 : en:01:26:57.379
    01:31:58.722 : en:01:31:58.722
    01:34:21.531 : en:01:34:21.531
    01:43:15.022 : en:01:43:15.022
    01:46:22.835 : en:01:46:22.835
    01:51:43.363 : en:01:51:43.363
    01:56:15.760 : en:01:56:15.760
    02:03:33.531 : en:02:03:33.531
    02:05:48.416 : en:02:05:48.416
    СкриншотыОтличия от существующих раздач

  • _________________
    Показать сообщения:    

    Текущее время: Сегодня 17:55

    Часовой пояс: GMT



    Вы не можете начинать темы
    Вы не можете отвечать на сообщения
    Вы не можете редактировать свои сообщения
    Вы не можете удалять свои сообщения
    Вы не можете голосовать в опросах
    Вы не можете прикреплять файлы к сообщениям
    Вы не можете скачивать файлы
    Наши партнеры: интернет магазин Ивановского трикотажа textilla.ru