Важное объявление!
У Нас Все раздачи мультитрекерные, при нуле пиров в релизах, можете смело вставать на закачку!
 
Автор Сообщение

HUNTER

Стаж:
4 года 7 месяцев
Сообщений:
61564

Репутация: 101

[+] [-]
Вне форума [Профиль] [ЛС]

Двойные неприятности / Double Take
Страна: США
Студия: Touchstone Pictures
Жанр: боевик, комедия, криминал
Год выпуска: 2001
Продолжительность: 01:28:13
Перевод: Профессиональный (многоголосый закадровый)
Перевод 2: Профессиональный (двухголосый закадровый)
Cубтитры: английские
Оригинальная аудиодорожка: английский
Режиссер: Джордж Галло /George Gallo
В ролях: Орландо Джонс, Эдди Гриффин, Гэри Граббс, Дэниэл Робак, Стерлинг Мейсер мл., Бенни Нивз, Гарсель Бове, Андреа Наведо, Эдвард Херрманн, Шоун Эллиотт, Брент Бриско
Описание: Украсть паспорт у похожего парня, и выдать себя за него — эта идея показалась герою данной криминальной комедии очень удачной. Ведь он находился в бегах после ложного обвинения и нуждался хотя бы во временном прикрытии.
Но вскоре незадачливый воришка понял, что попал из огня да в полымя. Обладатель паспорта оказался довольно опасным типом, которого разыскивают еще рьянее, чем его самого.
Вот теперь герой влип по-настоящему и должен срочно придумать, как выкрутиться из этой ситуации, пока ему не пришлось дорого заплатить… по чужим счетам!


Sample
Тип релиза: WEB-DL 720p
Контейнер: MKV
Видео: MPEG4 AVC Video, H264, 16:9, 1280x542, 23.976 fps, 4125 kbps
Аудио: Russian (AC3, 2 ch, 192 kbps, 16 bits, 48.0 KHz) - MVO
Аудио 2: Russian (AC3, 2 ch, 192 kbps, 16 bits, 48.0 KHz) - DVO
Аудио 3: English (AC3, 6 ch, 384 kbps, 16 bits, 48.0 KHz) - оригинал
Формат субтитров: softsub (SRT)

MediaInfo

General
Unique ID : 250697022870664920044478243376326322374 (0xBC9A7D865E10FF3FA158F31B7E4D28C6)
Complete name : E:\Double Take 2001 WEB-DL 720p.mkv
Format : Matroska
Format version : Version 4 / Version 2
File size : 3.08 GiB
Duration : 1h 28mn
Overall bit rate : 4 992 Kbps
Encoded date : UTC 2016-03-21 10:24:52
Writing application : mkvmerge v6.1.0 ('Old Devil') built on Mar 2 2013 14:32:37
Writing library : libebml v1.3.0 + libmatroska v1.4.0
Video
ID : 1
Format : AVC
Format/Info : Advanced Video Codec
Format profile : Main@L3.1
Format settings, CABAC : No
Format settings, ReFrames : 2 frames
Codec ID : V_MPEG4/ISO/AVC
Duration : 1h 28mn
Bit rate : 4 125 Kbps
Width : 1 280 pixels
Height : 542 pixels
Display aspect ratio : 2.35:1
Frame rate mode : Constant
Frame rate : 23.976 fps
Color space : YUV
Chroma subsampling : 4:2:0
Bit depth : 8 bits
Scan type : Progressive
Bits/(Pixel*Frame) : 0.248
Stream size : 2.54 GiB (83%)
Language : English
Default : Yes
Forced : No
Color primaries : BT.709
Transfer characteristics : BT.709
Matrix coefficients : BT.709
Audio #1
ID : 2
Format : AC-3
Format/Info : Audio Coding 3
Mode extension : CM (complete main)
Format settings, Endianness : Big
Codec ID : A_AC3
Duration : 1h 28mn
Bit rate mode : Constant
Bit rate : 192 Kbps
Channel count : 2 channels
Channel positions : Front: L R
Sampling rate : 48.0 KHz
Bit depth : 16 bits
Compression mode : Lossy
Stream size : 121 MiB (4%)
Title : MVO
Language : Russian
Default : Yes
Forced : No
Audio #2
ID : 3
Format : AC-3
Format/Info : Audio Coding 3
Mode extension : CM (complete main)
Format settings, Endianness : Big
Codec ID : A_AC3
Duration : 1h 28mn
Bit rate mode : Constant
Bit rate : 192 Kbps
Channel count : 2 channels
Channel positions : Front: L R
Sampling rate : 48.0 KHz
Bit depth : 16 bits
Compression mode : Lossy
Stream size : 121 MiB (4%)
Title : DVO
Language : Russian
Default : No
Forced : No
Audio #3
ID : 4
Format : AC-3
Format/Info : Audio Coding 3
Mode extension : CM (complete main)
Format settings, Endianness : Big
Codec ID : A_AC3
Duration : 1h 28mn
Bit rate mode : Constant
Bit rate : 384 Kbps
Channel count : 6 channels
Channel positions : Front: L C R, Side: L R, LFE
Sampling rate : 48.0 KHz
Bit depth : 16 bits
Compression mode : Lossy
Stream size : 242 MiB (8%)
Language : English
Default : No
Forced : No
Text
ID : 5
Format : UTF-8
Codec ID : S_TEXT/UTF8
Codec ID/Info : UTF-8 Plain Text
Language : English
Default : No
Forced : No
Menu
00:00:00.000 : en:Opening Titles
00:02:53.000 : en:That Is Not The Guy!
00:06:02.000 : en:$106 Million
00:09:00.000 : en:La Perla Fashion Show
00:13:25.000 : en:We're The Good Guys
00:16:49.000 : en:I'm In Trouble!
00:20:00.000 : en:Trading Places
00:22:32.000 : en:Get On The Train!
00:23:37.000 : en:Give Us A Call
00:24:40.000 : en:Street Smarts
00:27:57.000 : en:Dinnertime
00:33:59.000 : en:Look Who Made The Paper
00:36:13.000 : en:Get Off The Train!
00:39:06.000 : en:Internationally Known
00:42:08.000 : en:Serious Skills
00:45:52.000 : en:Checking In At El Emu
00:48:03.000 : en:Hang Up The Phone
00:51:45.000 : en:The Rogue
00:54:03.000 : en:Shoot-Out At El Emu
00:58:50.000 : en:I'm Not Freddy Tiffany
01:04:32.000 : en:River Crossing
01:06:31.000 : en:Whatever It Takes
01:06:50.000 : en:Looking Twice - The Double Take
01:11:13.000 : en:A Couple Of Snags
01:13:54.000 : en:Payback Time
01:21:26.000 : en:One Big Happy Family
01:22:57.000 : en:Strike Team / End Credits

Скриншоты


_________________
Показать сообщения:    

Текущее время: Сегодня 19:25

Часовой пояс: GMT



Вы не можете начинать темы
Вы не можете отвечать на сообщения
Вы не можете редактировать свои сообщения
Вы не можете удалять свои сообщения
Вы не можете голосовать в опросах
Вы не можете прикреплять файлы к сообщениям
Вы не можете скачивать файлы
Наши партнеры: интернет магазин Ивановского трикотажа textilla.ru