Ивановский Торрент трекер
Яндекс.Погода
 

[Цитировать]
HUNTER

Двойная страховка / Double Indemnity
Страна: США
Жанр: фильм-нуар, триллер, драма, криминал
Год выпуска: 1944
Продолжительность: 01:47:55
Перевод: Профессиональный (многоголосый закадровый) Film Prestige
Перевод: Профессиональный (многоголосый закадровый) Total DVD
Перевод: Авторский (одноголосый закадровый) Петр Карцев
Cубтитры: русские, английские
Оригинальная аудиодорожка: английский-Режиссер: Билли Уайлдер / Billy Wilder
В ролях: Фред МакМюррэй, Эдвард Дж. Робинсон, Барбара Стэнвик, Портер Холл, Жан Хезер, Том Пауэрс, Байрон Барр, Ричард Гейнс, Фортунио Бонанова, Джон Филлибер, Джеймс Адамсон, Джон Берри, Эдмунд Кобб, Кернан Криппс, Бетти Фаррингтон, Бесс Флауэрс
Описание: По мотивам одноимённой повести Джеймса Кейна, основанной на реальном преступлении 1927 года.
Сластолюбивый страховой агент Уолтер Нефф отправляется продлить полис на машину некоему мистеру Дитрихсону. В его доме он встречается с миссис Дитрихсон и мгновенно воспламеняется.
Далее, как и во всех «черных» фильмах, красотка делает Уолтеру предложение, от которого он не может отказаться и… совершает первый шаг в объятия Смерти.
IMDb || КиноПоиск-Тип релиза: BDRip 720p [LiNG]
Контейнер: MKV
Видео: H.264/AVC, 946x720 at 23.976 fps, ~15000 kbps
Аудио#1: Russian: 48 kHz, AC3, 2/0 (L,R) ch, 192.00 kbps |Многоголосый закадровый, Film Prestige|
Аудио#2: Russian: 48 kHz, AC3, 2/0 (L,R) ch, 192.00 kbps |Многоголосый закадровый, Total DVD|
Аудио#3: Russian: 48 kHz, AC3, 2/0 (L,R) ch, 192.00 kbps |Авторский одноголосый закадровый, П.Карцев|
Аудио#4: English: 48 kHz, AC3, 2/0 (L,R) ch, 192.00 kbps
Аудио#5: English: 48 kHz, AC3, 2/0 (L,R) ch, 192.00 kbps |Music|
Аудио#6: English: 48 kHz, AAC-LC, 2/0 (L,R) ch, VBR |Commentary|
Формат субтитров: softsub (SRT)
Сэмпл

MediaInfo

x264

x264 [info]: frame I:747 Avg QP:15.50 size:151605
x264 [info]: frame P:26136 Avg QP:18.01 size:104816
x264 [info]: frame B:128364 Avg QP:20.16 size: 72353
x264 [info]: consecutive B-frames: 0.9% 0.2% 1.0% 8.2% 12.7% 42.0% 13.3% 10.4% 5.0% 4.7% 1.7%
x264 [info]: kb/s:14999.34
Format : Matroska
Format version : Version 2
File size : 12.1 GiB
Duration : 1h 47mn
Overall bit rate : 16.0 Mbps
Encoded date : UTC 2013-04-28 11:25:51
Writing application : mkvmerge v5.0.1 ('Es ist Sommer') built on Nov 6 2011 16:23:40
Writing library : libebml v1.2.2 + libmatroska v1.3.0
Video
ID : 1
Format : AVC
Format/Info : Advanced Video Codec
Format profile : High@L4.1
Format settings, CABAC : Yes
Format settings, ReFrames : 9 frames
Codec ID : V_MPEG4/ISO/AVC
Duration : 1h 47mn
Nominal bit rate : 15.0 Mbps
Width : 946 pixels
Height : 720 pixels
Display aspect ratio : 4:3
Frame rate : 23.976 fps
Color space : YUV
Chroma subsampling : 4:2:0
Bit depth : 8 bits
Scan type : Progressive
Bits/(Pixel*Frame) : 0.919
Writing library : x264 core 120 r2119 0637cd6
Encoding settings : cabac=1 / ref=9 / deblock=1:-3:-3 / analyse=0x3:0x133 / me=umh / subme=11 / psy=1 / psy_rd=0.90:0.00 / mixed_ref=1 / me_range=48 / chroma_me=1 / trellis=2 / 8x8dct=1 / cqm=0 / deadzone=21,11 / fast_pskip=0 / chroma_qp_offset=-2 / threads=12 / sliced_threads=0 / nr=0 / decimate=0 / interlaced=0 / bluray_compat=0 / constrained_intra=0 / bframes=10 / b_pyramid=2 / b_adapt=2 / b_bias=0 / direct=3 / weightb=1 / open_gop=0 / weightp=2 / keyint=250 / keyint_min=23 / scenecut=40 / intra_refresh=0 / rc_lookahead=40 / rc=2pass / mbtree=1 / bitrate=15000 / ratetol=1.0 / qcomp=0.60 / qpmin=0 / qpmax=69 / qpstep=4 / cplxblur=20.0 / qblur=0.5 / ip_ratio=1.40 / aq=2:0.80
Language : English
Default : Yes
Forced : No
Audio #1
ID : 2
Format : AC-3
Format/Info : Audio Coding 3
Mode extension : CM (complete main)
Codec ID : A_AC3
Duration : 1h 47mn
Bit rate mode : Constant
Bit rate : 192 Kbps
Channel(s) : 2 channels
Channel positions : Front: L R
Sampling rate : 48.0 KHz
Bit depth : 16 bits
Compression mode : Lossy
Stream size : 148 MiB (1%)
Title : Film Prestige
Language : Russian
Default : Yes
Forced : No
Audio #2
ID : 3
Format : AC-3
Format/Info : Audio Coding 3
Format profile : Dolby Digital
Mode extension : CM (complete main)
Codec ID : A_AC3
Duration : 1h 47mn
Bit rate mode : Constant
Bit rate : 192 Kbps
Channel(s) : 2 channels
Channel positions : Front: L R
Sampling rate : 48.0 KHz
Bit depth : 16 bits
Compression mode : Lossy
Stream size : 148 MiB (1%)
Title : Total DVD
Language : Russian
Default : No
Forced : No
Audio #3
ID : 4
Format : AC-3
Format/Info : Audio Coding 3
Mode extension : CM (complete main)
Codec ID : A_AC3
Duration : 1h 47mn
Bit rate mode : Constant
Bit rate : 192 Kbps
Channel(s) : 2 channels
Channel positions : Front: L R
Sampling rate : 48.0 KHz
Bit depth : 16 bits
Compression mode : Lossy
Stream size : 148 MiB (1%)
Title : avo
Language : Russian
Default : No
Forced : No
Audio #4
ID : 5
Format : AC-3
Format/Info : Audio Coding 3
Mode extension : CM (complete main)
Codec ID : A_AC3
Duration : 1h 47mn
Bit rate mode : Constant
Bit rate : 192 Kbps
Channel(s) : 2 channels
Channel positions : Front: L R
Sampling rate : 48.0 KHz
Bit depth : 16 bits
Compression mode : Lossy
Stream size : 148 MiB (1%)
Title : Main Audio
Language : English
Default : No
Forced : No
Audio #5
ID : 6
Format : AC-3
Format/Info : Audio Coding 3
Mode extension : CM (complete main)
Codec ID : A_AC3
Duration : 1h 47mn
Bit rate mode : Constant
Bit rate : 192 Kbps
Channel(s) : 2 channels
Channel positions : Front: L R
Sampling rate : 48.0 KHz
Bit depth : 16 bits
Compression mode : Lossy
Stream size : 148 MiB (1%)
Title : Music
Language : English
Default : No
Forced : No
Audio #6
ID : 7
Format : AAC
Format/Info : Advanced Audio Codec
Format profile : HE-AAC / LC
Codec ID : A_AAC
Duration : 1h 47mn
Channel(s) : 2 channels
Channel positions : Front: L R
Sampling rate : 48.0 KHz / 24.0 KHz
Compression mode : Lossy
Title : Commentary
Language : English
Default : No
Forced : No
Text #1
ID : 8
Format : UTF-8
Codec ID : S_TEXT/UTF8
Codec ID/Info : UTF-8 Plain Text
Language : Russian
Default : No
Forced : No
Text #2
ID : 9
Format : UTF-8
Codec ID : S_TEXT/UTF8
Codec ID/Info : UTF-8 Plain Text
Language : English
Default : No
Forced : No

Скриншоты

LiNG vs Source vs HDTV LiNG vs Source
Показать сообщения:    

Текущее время: 23-Окт 01:35

Часовой пояс: UTC - 1


Вы не можете начинать темы
Вы не можете отвечать на сообщения
Вы не можете редактировать свои сообщения
Вы не можете удалять свои сообщения
Вы не можете голосовать в опросах
Вы не можете прикреплять файлы к сообщениям
Вы не можете скачивать файлы

!ВНИМАНИЕ!
Сайт не предоставляет электронные версии произведений, а занимается лишь коллекционированием и каталогизацией ссылок, присылаемых и публикуемых на форуме нашими читателями. Если вы являетесь правообладателем какого-либо представленного материала и не желаете, чтобы ссылка на него находилась в нашем каталоге, свяжитесь с нами, и мы незамедлительно удалим ее. Файлы для обмена на трекере предоставлены пользователями сайта, и администрация не несет ответственности за их содержание. Просьба не заливать файлы, защищенные авторскими правами, а также файлы нелегального содержания!