Важное объявление!
У Нас Все раздачи мультитрекерные, при нуле пиров в релизах, можете смело вставать на закачку!
 
Автор Сообщение

HUNTER

Стаж:
4 года 8 месяцев
Сообщений:
62020

Репутация: 101

[+] [-]
Вне форума [Профиль] [ЛС]

Двое на дороге / Двое в дороге / Двое в пути / Two for the Road
Страна: Великобритания
Студия: Stanley Donen Films
Жанр: драма, мелодрама, комедия
Год выпуска: 1967
Продолжительность: 01:52:10
Перевод: Профессиональный (многоголосый закадровый) 1 канал
Перевод 2: Профессиональный (двухголосый закадровый) Film Prestige
Cубтитры: русские, английские
Оригинальная аудиодорожка: английский
Режиссер: Стенли Донен / Stanley Donen
В ролях: Одри Хепбёрн, Альберт Финни, Элеанор Брон, Уильям Дэниэлс, Габриэлла Миддлтон, Клод Дофен, Надя Грэй, Жорж Декриер, Жаклин Биссет, Джуди Корнуэлл, Ирэн Хильда, Доминик Джус
Описание: Переживающие кризис супружеской жизни, Марк и Джоанна Уоллес отправляются отдохнуть на французскую Ривьеру, место их знакомства. Будучи студентом, Марк, изучавший памятники европейской архитектуры, встретился там с весёлой компанией девушек-музыкантов.
Вначале Марк «запал» на Джекки, но затем переключился на Джоанну… Уже поженившись, они ещё не раз совершали поездки по Европе, и каждый раз их брак подвергался испытаниям на прочность. Нынешнее путешествие помогает им понять, что, сколько бы они ни ссорились и какие бы серьезные причины не говорили в пользу развода, они все ещё очень любят друг друга…

Sample
Тип релиза: BDRip 720p - EbP
Контейнер: MKV
Видео: MPEG4 AVC Video, H264, 16:9, 1280x544, 23,976 fps, 11.0 Mbps
Аудио: Russian (AC3, 2 ch, 192 kbps, 16 bits, 48.0 KHz) - MVO 1 канал
Аудио 2: Russian (AC3, 2 ch, 192 kbps, 16 bits, 48.0 KHz) - DVO Film Prestige
Аудио 3: English (FLAC, 2 ch, 642 kbps, 24 bits, 48.0 KHz) - оригинал
Аудио 4: English (AC3, 2 ch, 192 kbps, 16 bits, 48.0 KHz) - комментарии режиссёра
Формат субтитров: softsub (SRT)

лог x264

x264 [info]: frame I:1296 Avg QP:14.18 size:158800
x264 [info]: frame P:32362 Avg QP:15.48 size: 96357
x264 [info]: frame B:127719 Avg QP:17.50 size: 47967
x264 [info]: consecutive B-frames: 1.5% 1.2% 4.1% 18.9% 18.8% 44.4% 7.2% 2.0% 0.7% 1.2%

MediaInfo

General
Unique ID : 241215001500277504012854932295539527077 (0xB57851C6FB7B090D8C7B57D35F548DA5)
Complete name : K:\Two for the Road 1967 BDRip 720p-EbP.mkv
Format : Matroska
Format version : Version 4 / Version 2
File size : 9.76 GiB
Duration : 1h 52mn
Overall bit rate mode : Variable
Overall bit rate : 12.5 Mbps
Encoded date : UTC 2015-01-27 17:52:57
Writing application : mkvmerge v6.1.0 ('Old Devil') built on Mar 2 2013 14:32:37
Writing library : libebml v1.3.0 + libmatroska v1.4.0
Video
ID : 1
Format : AVC
Format/Info : Advanced Video Codec
Format profile : High@L4.1
Format settings, CABAC : Yes
Format settings, ReFrames : 12 frames
Codec ID : V_MPEG4/ISO/AVC
Duration : 1h 52mn
Width : 1 280 pixels
Height : 544 pixels
Display aspect ratio : 2.35:1
Frame rate mode : Constant
Frame rate : 23.976 fps
Color space : YUV
Chroma subsampling : 4:2:0
Bit depth : 8 bits
Scan type : Progressive
Writing library : x264 core 144 r2525kMod 40bb568
Encoding settings : cabac=1 / ref=12 / deblock=1:-3:-3 / analyse=0x3:0x133 / me=umh / subme=10 / psy=1 / fade_compensate=0.00 / psy_rd=1.10:0.00 / mixed_ref=1 / me_range=16 / chroma_me=1 / trellis=2 / 8x8dct=1 / cqm=0 / deadzone=21,11 / fast_pskip=0 / chroma_qp_offset=-2 / threads=12 / lookahead_threads=2 / sliced_threads=0 / nr=0 / decimate=0 / interlaced=0 / bluray_compat=0 / constrained_intra=0 / fgo=0 / bframes=9 / b_pyramid=2 / b_adapt=2 / b_bias=0 / direct=3 / weightb=1 / open_gop=0 / weightp=2 / keyint=250 / keyint_min=23 / scenecut=40 / intra_refresh=0 / rc=crf / mbtree=0 / crf=15.0000 / qcomp=0.60 / qpmin=0 / qpmax=69 / qpstep=4 / ip_ratio=1.40 / pb_ratio=1.30 / aq=3:0.60
Language : English
Default : Yes
Forced : No
Audio #1
ID : 2
Format : AC-3
Format/Info : Audio Coding 3
Mode extension : CM (complete main)
Format settings, Endianness : Big
Codec ID : A_AC3
Duration : 1h 52mn
Bit rate mode : Constant
Bit rate : 192 Kbps
Channel count : 2 channels
Channel positions : Front: L R
Sampling rate : 48.0 KHz
Bit depth : 16 bits
Compression mode : Lossy
Stream size : 154 MiB (2%)
Title : MVO Первый канал
Language : Russian
Default : Yes
Forced : No
Audio #2
ID : 3
Format : AC-3
Format/Info : Audio Coding 3
Mode extension : CM (complete main)
Format settings, Endianness : Big
Codec ID : A_AC3
Duration : 1h 52mn
Bit rate mode : Constant
Bit rate : 192 Kbps
Channel count : 2 channels
Channel positions : Front: L R
Sampling rate : 48.0 KHz
Bit depth : 16 bits
Compression mode : Lossy
Stream size : 154 MiB (2%)
Title : DVO Film Prestige
Language : Russian
Default : No
Forced : No
Audio #3
ID : 4
Format : FLAC
Format/Info : Free Lossless Audio Codec
Codec ID : A_FLAC
Duration : 1h 52mn
Bit rate mode : Variable
Channel count : 2 channels
Sampling rate : 48.0 KHz
Bit depth : 24 bits
Writing library : libFLAC 20080709 (UTC 2008-07-09)
Language : English
Default : No
Forced : No
Audio #4
ID : 5
Format : AC-3
Format/Info : Audio Coding 3
Mode extension : CM (complete main)
Format settings, Endianness : Big
Codec ID : A_AC3
Duration : 1h 52mn
Bit rate mode : Constant
Bit rate : 192 Kbps
Channel count : 2 channels
Channel positions : Front: L R
Sampling rate : 48.0 KHz
Bit depth : 16 bits
Compression mode : Lossy
Stream size : 154 MiB (2%)
Title : commentary
Language : English
Default : No
Forced : No
Text #1
ID : 6
Format : UTF-8
Codec ID : S_TEXT/UTF8
Codec ID/Info : UTF-8 Plain Text
Language : Russian
Default : No
Forced : No
Text #2
ID : 7
Format : UTF-8
Codec ID : S_TEXT/UTF8
Codec ID/Info : UTF-8 Plain Text
Language : English
Default : No
Forced : No
Menu
00:00:00.000 : en:00:00:00.000
00:02:20.515 : en:00:02:20.515
00:06:07.700 : en:00:06:07.700
00:13:59.797 : en:00:13:59.797
00:18:01.872 : en:00:18:01.872
00:22:04.406 : en:00:22:04.406
00:28:59.529 : en:00:28:59.529
00:35:29.293 : en:00:35:29.293
00:39:02.256 : en:00:39:02.256
00:44:46.475 : en:00:44:46.475
00:46:03.260 : en:00:46:03.260
00:54:07.243 : en:00:54:07.243
00:57:02.836 : en:00:57:02.836
01:01:57.463 : en:01:01:57.463
01:10:03.866 : en:01:10:03.866
01:18:13.188 : en:01:18:13.188
01:21:39.853 : en:01:21:39.853
01:24:16.259 : en:01:24:16.259
01:26:32.478 : en:01:26:32.478
01:33:37.820 : en:01:33:37.820
01:39:35.177 : en:01:39:35.177
01:45:26.278 : en:01:45:26.278
01:48:10.317 : en:01:48:10.317
01:50:15.150 : en:01:50:15.150

Скриншоты - сравнения

Source / EbP / WEB-DL

_________________
Показать сообщения:    

Текущее время: Сегодня 08:08

Часовой пояс: GMT



Вы не можете начинать темы
Вы не можете отвечать на сообщения
Вы не можете редактировать свои сообщения
Вы не можете удалять свои сообщения
Вы не можете голосовать в опросах
Вы не можете прикреплять файлы к сообщениям
Вы не можете скачивать файлы
Наши партнеры: интернет магазин Ивановского трикотажа textilla.ru