Ивановский Торрент трекер
Яндекс.Погода
 

[Цитировать]
HUNTER

Двое в городе
Deux hommes dans la ville | Two Against the Law
- Страна: Франция, Италия
Жанр: криминальная драма
Год выпуска: 1973
Продолжительность: 1:38:42
Перевод: Профессиональный (дублированный) USSR
Перевод 2: Профессиональный (многоголосый закадровый) 5 канал Санкт-Петербург
Перевод 3: Профессиональный (многоголосый закадровый) "Останкино"
Перевод 4: Авторский (одноголосый закадровый) А. Алексеев
Cубтитры: Rus, Eng, Fre
Оригинальная аудиодорожка: французский-Режиссер: Хосе Джованни / Jose Giovanni
В ролях:
Ален Делон | Alain Delon
Жан Габен | Jean Gabin

Мишель Буке, Мимси Фармер, Виктор Лану, Бернар Жиродо, Жак Моно, Кристин Фабрега, Малка Рибовска, Илария Оккини, Робер Кастель, Жерар Депардье-ОписаниеНемногословный, неустрашимый герой Габена помогает бывшим преступникам. Не каждому из них под силу освоиться в новой жизни. Но «Габен» знает секреты людской психологии. Его подопечный Джино удостоился внеочередной поддержки старшего друга, но у него остался непобедимый враг в полиции. И он не даст «Делону» опомниться...-Сэмпл

IMDb: 7.40 (2270)
Качество видео: BDRip 720p DEUX_HOMMES_DANS_LA_VILLE_1973_HDCLUB
Формат видео: MKV
Видео: AVC 10.7 Mbps 1200 x 720 (1.667) 23.976 fps
Аудио: AC-3 640 Kbps 6 channels, 48.0 KHz DUB USSR
Аудио 2: AC-3 384 Kbps 2 channels, 48.0 KHz MVO 5 канал Санкт-Петербург
Аудио 4: AC-3 384 Kbps 2 channels, 48.0 KHz MVO "Останкино"
Аудио 4: DTS 768 Kbps 2 channels, 48.0 KHz AVO А. Алексеев
Аудио 5: DTS 768 Kbps 2 channels, 48.0 KHz Fre
Формат субтитров: softsub (SRT)

MediaInfo | Log

Log
x264 [info]: frame I:883 Avg QP:18.59 size:159012
x264 [info]: frame P:26289 Avg QP:20.03 size: 93997
x264 [info]: frame B:114817 Avg QP:22.07 size: 48040
x264 [info]: consecutive B-frames: 1.0% 1.3% 2.8% 13.3% 16.2% 42.1% 10.3% 7.3% 3.1% 1.1% 1.5%
x264 [info]: mb I I16..4: 3.3% 87.7% 8.9%
x264 [info]: mb P I16..4: 0.2% 33.3% 0.6% P16..4: 21.1% 27.5% 14.9% 1.5% 0.1% skip: 0.9%
x264 [info]: mb B I16..4: 0.1% 9.3% 0.0% B16..8: 35.5% 20.1% 6.7% direct:11.0% skip:17.2% L0:42.5% L1:41.5% BI:16.0%
x264 [info]: 8x8 transform intra:97.9% inter:59.8%
x264 [info]: direct mvs spatial:100.0% temporal:0.0%
x264 [info]: coded y,uvDC,uvAC intra: 99.1% 97.1% 89.7% inter: 54.0% 34.5% 8.2%
x264 [info]: i16 v,h,dc,p: 69% 7% 10% 14%
x264 [info]: i8 v,h,dc,ddl,ddr,vr,hd,vl,hu: 8% 7% 17% 10% 12% 11% 11% 10% 12%
x264 [info]: i4 v,h,dc,ddl,ddr,vr,hd,vl,hu: 9% 6% 5% 10% 16% 15% 14% 12% 13%
x264 [info]: i8c dc,h,v,p: 58% 13% 12% 17%
x264 [info]: Weighted P-Frames: Y:6.1% UV:3.4%
x264 [info]: ref P L0: 36.9% 10.1% 21.3% 7.8% 7.8% 5.0% 5.3% 2.7% 3.1% 0.2% 0.0%
x264 [info]: ref B L0: 71.4% 12.2% 6.1% 3.7% 2.6% 2.4% 1.2% 0.5%
x264 [info]: ref B L1: 93.4% 6.6%
x264 [info]: kb/s:10978.85
x264 [total]: encoded 141989 frames, 5.64 fps, 10978.85 kb/s, duration 6:59:44.16
Format : Matroska
Format version : Version 4 / Version 2
File size : 9.60 GiB
Duration : 1h 38mn
Overall bit rate : 13.9 Mbps
Encoded date : UTC 2015-10-30 18:50:54
Writing application : mkvmerge v6.7.0 ('Back to the Ground') 32bit built on Jan 8 2014 15:03:17
Writing library : libebml v1.3.0 + libmatroska v1.4.1
Video
ID : 1
Format : AVC
Format/Info : Advanced Video Codec
Format profile : High@L4.1
Format settings, CABAC : Yes
Format settings, ReFrames : 9 frames
Codec ID : V_MPEG4/ISO/AVC
Duration : 1h 38mn
Bit rate : 10.7 Mbps
Width : 1 200 pixels
Height : 720 pixels
Display aspect ratio : 5:3
Frame rate mode : Constant
Frame rate : 23.976 fps
Color space : YUV
Chroma subsampling : 4:2:0
Bit depth : 8 bits
Scan type : Progressive
Bits/(Pixel*Frame) : 0.517
Stream size : 7.38 GiB (77%)
Title : Deux hommes dans la ville (1973) [rutracker.org]
Writing library : x264 core 148 r2579kMod 73ae2d1
Encoding settings : cabac=1 / ref=9 / deblock=1:-3:-2 / analyse=0x3:0x133 / me=umh / subme=11 / psy=1 / fade_compensate=0.00 / psy_rd=1.00:0.05 / mixed_ref=1 / me_range=32 / chroma_me=1 / trellis=2 / 8x8dct=1 / cqm=0 / deadzone=21,11 / fast_pskip=0 / chroma_qp_offset=-3 / threads=12 / lookahead_threads=3 / sliced_threads=0 / nr=0 / decimate=1 / interlaced=0 / bluray_compat=0 / constrained_intra=0 / fgo=0 / bframes=10 / b_pyramid=2 / b_adapt=2 / b_bias=0 / direct=3 / weightb=1 / open_gop=0 / weightp=2 / keyint=250 / keyint_min=23 / scenecut=40 / intra_refresh=0 / rc_lookahead=60 / rc=crf / mbtree=0 / crf=18.7000 / qcomp=0.60 / qpmin=0 / qpmax=69 / qpstep=4 / vbv_maxrate=50000 / vbv_bufsize=62500 / crf_max=0.0 / nal_hrd=none / filler=0 / ip_ratio=1.40 / pb_ratio=1.30 / aq=3:0.90
Language : English
Default : Yes
Forced : No
Audio #1
ID : 2
Format : AC-3
Format/Info : Audio Coding 3
Mode extension : CM (complete main)
Format settings, Endianness : Big
Codec ID : A_AC3
Duration : 1h 38mn
Bit rate mode : Constant
Bit rate : 640 Kbps
Channel(s) : 6 channels
Channel positions : Front: L C R, Side: L R, LFE
Sampling rate : 48.0 KHz
Compression mode : Lossy
Stream size : 452 MiB (5%)
Title : DUB [USSR]
Language : Russian
Default : Yes
Forced : No
Audio #2
ID : 3
Format : AC-3
Format/Info : Audio Coding 3
Mode extension : CM (complete main)
Format settings, Endianness : Big
Codec ID : A_AC3
Duration : 1h 38mn
Bit rate mode : Constant
Bit rate : 384 Kbps
Channel(s) : 2 channels
Channel positions : Front: L R
Sampling rate : 48.0 KHz
Compression mode : Lossy
Stream size : 271 MiB (3%)
Title : MVO [S-Piter]
Language : Russian
Default : No
Forced : No
Audio #3
ID : 4
Format : AC-3
Format/Info : Audio Coding 3
Mode extension : CM (complete main)
Format settings, Endianness : Big
Codec ID : A_AC3
Duration : 1h 38mn
Bit rate mode : Constant
Bit rate : 384 Kbps
Channel(s) : 2 channels
Channel positions : Front: L R
Sampling rate : 48.0 KHz
Compression mode : Lossy
Stream size : 271 MiB (3%)
Title : MVO [Ostankino]
Language : Russian
Default : No
Forced : No
Audio #4
ID : 5
Format : DTS
Format/Info : Digital Theater Systems
Mode : 16
Format settings, Endianness : Big
Codec ID : A_DTS
Duration : 1h 38mn
Bit rate mode : Constant
Bit rate : 768 Kbps
Channel(s) : 2 channels
Channel positions : Front: L R
Sampling rate : 48.0 KHz
Bit depth : 24 bits
Compression mode : Lossy
Stream size : 542 MiB (6%)
Title : AVO [A. Alekseev]
Language : Russian
Default : No
Forced : No
Audio #5
ID : 6
Format : DTS
Format/Info : Digital Theater Systems
Mode : 16
Format settings, Endianness : Big
Codec ID : A_DTS
Duration : 1h 38mn
Bit rate mode : Constant
Bit rate : 768 Kbps
Channel(s) : 2 channels
Channel positions : Front: L R
Sampling rate : 48.0 KHz
Bit depth : 24 bits
Compression mode : Lossy
Stream size : 542 MiB (6%)
Title : Original
Language : French
Default : No
Forced : No
Text #1
ID : 7
Format : UTF-8
Codec ID : S_TEXT/UTF8
Codec ID/Info : UTF-8 Plain Text
Title : Full
Language : Russian
Default : No
Forced : No
Text #2
ID : 8
Format : UTF-8
Codec ID : S_TEXT/UTF8
Codec ID/Info : UTF-8 Plain Text
Title : Full
Language : English
Default : No
Forced : No
Text #3
ID : 9
Format : UTF-8
Codec ID : S_TEXT/UTF8
Codec ID/Info : UTF-8 Plain Text
Title : Full
Language : French
Default : No
Forced : No
Menu
00:00:00.000 : en:00:00:00.000
00:03:31.336 : en:00:03:31.336
00:13:51.622 : en:00:13:51.622
00:20:28.519 : en:00:20:28.519
00:29:07.621 : en:00:29:07.621
00:33:55.158 : en:00:33:55.158
00:39:38.459 : en:00:39:38.459
00:50:50.214 : en:00:50:50.214
00:58:42.144 : en:00:58:42.144
01:05:49.487 : en:01:05:49.487
01:16:32.338 : en:01:16:32.338
01:26:59.589 : en:01:26:59.589

Скриншоты




Сравнения

Сравнение с этим релизом
Показать сообщения:    

Текущее время: 19-Сен 14:19

Часовой пояс: UTC - 1


Вы не можете начинать темы
Вы не можете отвечать на сообщения
Вы не можете редактировать свои сообщения
Вы не можете удалять свои сообщения
Вы не можете голосовать в опросах
Вы не можете прикреплять файлы к сообщениям
Вы не можете скачивать файлы

!ВНИМАНИЕ!
Сайт не предоставляет электронные версии произведений, а занимается лишь коллекционированием и каталогизацией ссылок, присылаемых и публикуемых на форуме нашими читателями. Если вы являетесь правообладателем какого-либо представленного материала и не желаете, чтобы ссылка на него находилась в нашем каталоге, свяжитесь с нами, и мы незамедлительно удалим ее. Файлы для обмена на трекере предоставлены пользователями сайта, и администрация не несет ответственности за их содержание. Просьба не заливать файлы, защищенные авторскими правами, а также файлы нелегального содержания!