Важное объявление!
У Нас Все раздачи мультитрекерные, при нуле пиров в релизах, можете смело вставать на закачку!
Статистика раздачи
Размер:     |    Зарегистрирован:     |    Скачан:     |   
Нет
 
     
 
 
Автор Сообщение

HUNTER

Стаж:
5 лет 1 месяц
Сообщений:
68426

Репутация: 101

[+] [-]
Вне форума [Профиль] [ЛС]

Двенадцать месяцев-Год выпуска: 1956
Страна: СССР
Жанр: мультфильм
Продолжительность: 00:52:44
Режиссер: Иван Иванов-Вано
Русские субтитры: нет
Озвучили: Эраст Гарин и др. Озвучка оригинальная!
Полная реставрация изображения и звука
Описание:
Снежной холодной зимой, в январе, под вечер, когда люди сидят в домах, прислушиваясь к треску поленьев в печках, злая мачеха отправила свои падчерицу в лес, чтобы та набрала корзину подснежников. Бедной девочке ничего не оставалось делать, как исполнить прихоть мачехи…
Релиз:
Качество: DVDRip-AVC
Контейнер: MKV
Видео: 718x556 (1.378) @ 766x556, 25.000 fps, AVC, ~2227 Kbps, 0.223 bits/pixel
Аудио: Russian, 48.0 KHz, AC3, 6 ch, 448 Kbps

Скриншоты

Тех.данные

General
Unique ID : 171114333628148782266413661927908628824 (0x80BB6C01F47F40908E0C9B125CC0D958)
Complete name : C:\torrent\Owner\Снежная королева\Двенадцать месяцев.mkv
Format : Matroska
Format version : Version 2
File size : 987 MiB
Duration : 52mn 44s
Overall bit rate : 2 616 Kbps
Encoded date : UTC 2011-11-13 19:54:30
Writing application : mkvmerge v5.0.1 ('Es ist Sommer') built on Oct 9 2011 11:55:43
Writing library : libebml v1.2.2 + libmatroska v1.3.0
Video
ID : 1
Format : AVC
Format/Info : Advanced Video Codec
Format profile : High@L4.0
Format settings, CABAC : Yes
Format settings, ReFrames : 16 frames
Codec ID : V_MPEG4/ISO/AVC
Duration : 52mn 44s
Bit rate : 2 116 Kbps
Width : 718 pixels
Height : 556 pixels
Display aspect ratio : 1.378
Original display aspect ratio : 1.377
Frame rate : 25.000 fps
Color space : YUV
Chroma subsampling : 4:2:0
Bit depth : 8 bits
Scan type : Progressive
Bits/(Pixel*Frame) : 0.212
Stream size : 798 MiB (81%)
Title : Nyc-2008 / rutracker.org / RG Multfilmy
Writing library : x264 core 119 r2106kMod 07efeb4
Encoding settings : cabac=1 / ref=16 / deblock=1:0:0 / analyse=0x3:0x113 / me=umh / subme=10 / psy=1 / fade_compensate=0.00 / psy_rd=1.00:0.10 / mixed_ref=1 / me_range=24 / chroma_me=1 / trellis=2 / 8x8dct=1 / cqm=0 / deadzone=21,11 / fast_pskip=0 / chroma_qp_offset=-3 / threads=6 / sliced_threads=0 / nr=0 / decimate=1 / interlaced=0 / bluray_compat=0 / constrained_intra=0 / bframes=12 / b_pyramid=2 / b_adapt=2 / b_bias=0 / direct=1 / weightb=1 / open_gop=0 / weightp=2 / keyint=250 / keyint_min=25 / scenecut=40 / intra_refresh=0 / rc_lookahead=60 / rc=crf / mbtree=1 / crf=19.4900 / qcomp=0.60 / qpmin=0 / qpmax=69 / qpstep=4 / ip_ratio=1.40 / aq=2:1.00
Language : Russian
Audio
ID : 2
Format : AC-3
Format/Info : Audio Coding 3
Mode extension : CM (complete main)
Codec ID : A_AC3
Duration : 52mn 44s
Bit rate mode : Constant
Bit rate : 448 Kbps
Channel(s) : 6 channels
Channel positions : Front: L C R, Side: L R, LFE
Sampling rate : 48.0 KHz
Bit depth : 16 bits
Compression mode : Lossy
Stream size : 169 MiB (17%)
Language : Russian

_________________
Показать сообщения:    

Текущее время: Сегодня 20:15

Часовой пояс: GMT



Вы не можете начинать темы
Вы не можете отвечать на сообщения
Вы не можете редактировать свои сообщения
Вы не можете удалять свои сообщения
Вы не можете голосовать в опросах
Вы не можете прикреплять файлы к сообщениям
Вы не можете скачивать файлы