Ивановский Торрент трекер
Яндекс.Погода
 

[Цитировать]
HUNTER

Два ствола / 2 Guns
Год выпуска: 2013
Страна: США
Жанр: Боевик, триллер, драма, комедия, криминал
Продолжительность: 01:49:15
Перевод #1: Авторский (одноголосый, закадровый) [Ю.Сербин]
Перевод #2: Авторский (одноголосый, закадровый) [Л.Володарский]
Cубтитры: нет
Оригинальная аудиодорожка: нет
Режиссер: Бальтасар Кормакур / Baltasar Korm�kur
В ролях: Дензел Вашингтон, Марк Уолберг, Пола Пэттон, Билл Пэкстон, Фред Уорд, Джеймс Марсден, Роберт Джон Бёрк, Фред Уорд, Патрик Фишлер, Лаки Джонсон
Описание: Это история двух грабителей, которые на самом деле не те, кем кажутся. Один из них — агент из управления по борьбе с наркотиками, а другой — тайный агент разведки ВМС. Сами того не желая, они занимаются расследованием дел друг друга, а также воруют деньги у мафии. Через некоторое время героям придется украсть 50 миллионов долларов у ЦРУ.

Качество видео: HDRip
Формат видео: AVI
Видео кодек: Xvid
Аудио кодек: AC3
Видео: 720x304 (2.37:1), 23.976 fps, XviD build 73 ~1804 kbps avg, 0.34 bit/pixel
Аудио №1: 48 kHz, AC3 Dolby Digital, 3/2 (L,C,R,l,r) + LFE ch, ~448.00 kbps avg [Ю.Сербин]
Аудио №2: 48 kHz, AC3 Dolby Digital, 3/2 (L,C,R,l,r) + LFE ch, ~448.00 kbps avg [Л.Володарский]-

Доп. информация

MediaInfo

General
Complete name : E:INTERNETDva stvola.avi
Format : AVI
Format/Info : Audio Video Interleave
Format profile : OpenDML
File size : 2.07 GiB
Duration : 1h 49mn
Overall bit rate : 2 708 Kbps
Writing application : VirtualDubMod 1.5.10.3 | www.virtualdub-fr.org || (build 2550/release)
Writing library : VirtualDubMod build 2550/release
Video
ID : 0
Format : MPEG-4 Visual
Format profile : Advanced Simple@L5
Format settings, BVOP : Yes
Format settings, QPel : No
Format settings, GMC : No warppoints
Format settings, Matrix : Custom
Codec ID : XVID
Codec ID/Hint : XviD
Duration : 1h 49mn
Bit rate : 1 793 Kbps
Width : 720 pixels
Height : 304 pixels
Display aspect ratio : 2.35:1
Frame rate : 23.976 fps
Color space : YUV
Chroma subsampling : 4:2:0
Bit depth : 8 bits
Scan type : Progressive
Bits/(Pixel*Frame) : 0.342
Stream size : 1.37 GiB (66%)
Writing library : XviD 73
Audio #1
ID : 1
Format : AC-3
Format/Info : Audio Coding 3
Mode extension : CM (complete main)
Codec ID : 2000
Duration : 1h 49mn
Bit rate mode : Constant
Bit rate : 448 Kbps
Channel(s) : 6 channels
Channel positions : Front: L C R, Side: L R, LFE
Sampling rate : 48.0 KHz
Bit depth : 16 bits
Stream size : 350 MiB (17%)
Alignment : Split accross interleaves
Interleave, duration : 42 ms (1.00 video frame)
Interleave, preload duration : 500 ms
Audio #2
ID : 2
Format : AC-3
Format/Info : Audio Coding 3
Mode extension : CM (complete main)
Codec ID : 2000
Duration : 1h 49mn
Bit rate mode : Constant
Bit rate : 448 Kbps
Channel(s) : 6 channels
Channel positions : Front: L C R, Side: L R, LFE
Sampling rate : 48.0 KHz
Bit depth : 16 bits
Stream size : 350 MiB (17%)
Alignment : Split accross interleaves
Interleave, duration : 42 ms (1.00 video frame)
Interleave, preload duration : 500 ms

Скриншоты


-Источник:


Показать сообщения:    

Текущее время: 17-Дек 19:15

Часовой пояс: UTC ± 0


Вы не можете начинать темы
Вы не можете отвечать на сообщения
Вы не можете редактировать свои сообщения
Вы не можете удалять свои сообщения
Вы не можете голосовать в опросах
Вы не можете прикреплять файлы к сообщениям
Вы не можете скачивать файлы

!ВНИМАНИЕ!
Сайт не предоставляет электронные версии произведений, а занимается лишь коллекционированием и каталогизацией ссылок, присылаемых и публикуемых на форуме нашими читателями. Если вы являетесь правообладателем какого-либо представленного материала и не желаете, чтобы ссылка на него находилась в нашем каталоге, свяжитесь с нами, и мы незамедлительно удалим ее. Файлы для обмена на трекере предоставлены пользователями сайта, и администрация не несет ответственности за их содержание. Просьба не заливать файлы, защищенные авторскими правами, а также файлы нелегального содержания!