Ивановский Торрент трекер
Яндекс.Погода
 

[Цитировать]
димитри37

Даша
Год выпуска: 2013
Производство: Россия, кинокомпания УПС
Жанр: Мелодрама
Продолжительность: 2х ~ 01:30:00
Субтитры: нет
Режиссёр: Антон Азаров
В ролях: Александр Тютин, Андрей Барило, Дарья Егорова, Артем Фадеев, Игорь Писный, Любава Грешнова, Ирина Барбинова, Михаил Пшеничный, Андрей Дебрин и другие.
Описание: Семнадцатилетняя воспитанница провинциального детского дома Даша становится жертвой богатого мошенника Богданова. Чтобы уберечь свое имущество от конфискации, он выдает Дашу за свою внебрачную дочь, которую разыскал, чтобы загладить прошлые грехи и дать дочери престижное заграничное образование. На самом деле Богданов хочет переписать на девочку свое имущество и избавиться от нее. Только он не учел, что у Даши волевой, свободолюбивый характер: девушка, которая выросла в детском доме, привыкла принимать решения самостоятельно. Она не согласна гнить в рабстве из-за прихоти проворовавшегося негодяя. И теперь богатая невеста Даша будет бороться за свою жизнь и счастье, которое она заслужила...
Все раздачи сериала: Даша

Качество: HDTVRip 720p
Формат: MKV
Видео кодек: H.264
Аудио кодек: MPEG Audio
Видео: x264, 1280 х 720 (16:9), 25,000 кадр/сек, ~ 2517 Кбит/сек, 0.107 bit/pixel
Аудио: MPEG Audio 48000Hz stereo 192 Кбит/сек
Сторонней рекламы нет!

MediaInfo

ОбщееУникальный идентификатор : 176959299797570688597688493566447267839 (0x85211F16CF35636F9611E6C1666F2FFF)Полное имя : G:\ФИЛЬМЫ\Даша HDTVRip 720p\Даша 01_02_серия_HDTVRip_by_Серый1779.mkvФормат : MatroskaВерсия формата : Version 2Размер файла : 1,70 ГбайтПродолжительность : 1 ч. 30 м.Общий поток : 2706 Кбит/секДата кодирования : UTC 2013-04-15 21:00:13Программа кодирования : mkvmerge v4.9.1 ('Ich will') built on Sep 21 2011 17:48:11Библиотека кодирования : libebml v1.2.1 + libmatroska v1.2.0
ВидеоИдентификатор : 1Формат : AVCФормат/Информация : Advanced Video CodecПрофиль формата : High@L4.0Параметр CABAC формата : ДаПараметр ReFrames формата : 9 кадровИдентификатор кодека : V_MPEG4/ISO/AVCПродолжительность : 1 ч. 30 м.Битрейт : 2460 Кбит/секШирина : 1280 пикселейВысота : 720 пикселейСоотношение сторон : 16:9Режим частоты кадров : ПостоянныйЧастота кадров : 25,000 кадров/секЦветовое пространство : YUVСубдискретизация насыщенности : 4:2:0Битовая глубина : 8 битТип развёртки : ПрогрессивнаяБит/(Пиксели*Кадры) : 0.107Размер потока : 1,55 Гбайт (91%)Библиотека кодирования : x264 core 118 r2085 8a62835Настройки программы : cabac=1 / ref=9 / deblock=1:-3:-3 / analyse=0x3:0x133 / me=umh / subme=9 / psy=1 / psy_rd=1.00:0.15 / mixed_ref=1 / me_range=32 / chroma_me=1 / trellis=2 / 8x8dct=1 / cqm=0 / deadzone=21,11 / fast_pskip=0 / chroma_qp_offset=-3 / threads=3 / sliced_threads=0 / nr=0 / decimate=1 / interlaced=0 / bluray_compat=0 / constrained_intra=0 / bframes=9 / b_pyramid=2 / b_adapt=2 / b_bias=0 / direct=1 / weightb=1 / open_gop=0 / weightp=2 / keyint=250 / keyint_min=25 / scenecut=40 / intra_refresh=0 / rc=crf / mbtree=0 / crf=20.0 / qcomp=0.60 / qpmin=0 / qpmax=69 / qpstep=4 / ip_ratio=1.40 / pb_ratio=1.30 / aq=2:0.70Default : ДаForced : НетОсновные цвета : BT.601 PALХарактеристики трансфера : BT.470 System B, BT.470 System GКоэффициенты матрицы : BT.601
АудиоИдентификатор : 2Формат : MPEG AudioВерсия формата : Version 1Профиль формата : Layer 2Идентификатор кодека : A_MPEG/L2Идентификатор кодека/Подсказка : MP2Продолжительность : 1 ч. 30 м.Вид битрейта : ПостоянныйБитрейт : 192 Кбит/секКаналы : 2 каналаЧастота : 48,0 КГцМетод сжатия : С потерямиРазмер потока : 124 Мбайт (7%)Default : ДаForced : Нет

h264 log

x264 [info]: frame I:882 Avg QP:18.14 size: 79772x264 [info]: frame P:28844 Avg QP:19.73 size: 28683x264 [info]: frame B:105462 Avg QP:22.23 size: 7590x264 [info]: consecutive B-frames: 1.2% 1.4% 12.2% 17.8% 12.7% 53.1% 1.2% 0.3% 0.1% 0.0%x264 [info]: mb I I16..4: 12.8% 73.5% 13.7%x264 [info]: mb P I16..4: 2.3% 11.2% 1.2% P16..4: 59.4% 15.5% 4.1% 0.4% 0.1% skip: 5.7%x264 [info]: mb B I16..4: 0.2% 0.8% 0.1% B16..8: 36.5% 5.2% 1.3% direct: 4.4% skip:51.5% L0:37.7% L1:52.3% BI:10.0%x264 [info]: 8x8 transform intra:75.6% inter:68.4%x264 [info]: coded y,uvDC,uvAC intra: 77.4% 76.0% 41.7% inter: 16.0% 18.1% 1.7%x264 [info]: i16 v,h,dc,p: 21% 28% 6% 45%x264 [info]: i8 v,h,dc,ddl,ddr,vr,hd,vl,hu: 15% 12% 4% 8% 12% 13% 12% 12% 12%x264 [info]: i4 v,h,dc,ddl,ddr,vr,hd,vl,hu: 16% 13% 3% 8% 14% 14% 12% 10% 11%x264 [info]: i8c dc,h,v,p: 34% 25% 23% 19%x264 [info]: Weighted P-Frames: Y:4.7% UV:3.3%x264 [info]: ref P L0: 46.3% 10.7% 20.7% 5.7% 5.2% 3.6% 3.5% 1.8% 2.0% 0.4% 0.0%x264 [info]: ref B L0: 86.1% 8.0% 2.6% 1.2% 0.8% 0.7% 0.4% 0.2%x264 [info]: ref B L1: 95.4% 4.6%x264 [info]: kb/s:2512.31
x264 [total]: encoded 135188 frames, 2.47 fps, 2512.31 kb/s

Внимание ! Раздача ведётся путём добавления новых серий

Внимание! Раздача ведётся путём добавления новых серий; при каждом добавлении создётся новый торрент. Чтобы начать докачку новой серии, пользователям необходимо сделать следующее:
(1) остановить скачивание,
(2) удалить старый торрент у себя из клиента (старые серии удалять не надо),
(3) скачать новый торрент и запустить его у себя в клиенте вместо старого, при этом указать клиенту путь в старую папку куда и должно происходить скачивание новых серий.
Ваш клиент при этом должен произвести хеширование (проверку) старой папки (если не производит сам - помогите ему сделать это), и будет докачивать только те серии которых у вас ещё нет. Старые серии при этом не удаляются, а продолжают раздаваться!
Eсли вы уже удалили старые серии, то предотвратить повторную закачку старых серий можно, отжав галочку в соответсвующих местах при запуске нового торрента. По возможности, желательно не удалять старые серии как можно дольше чтобы релизёр не столько продолжал раздавать старые серии, а смог сконцентрироваться на новых.

Скриншоты

-


Показать сообщения:    

Текущее время: 11-Дек 07:55

Часовой пояс: UTC ± 0


Вы не можете начинать темы
Вы не можете отвечать на сообщения
Вы не можете редактировать свои сообщения
Вы не можете удалять свои сообщения
Вы не можете голосовать в опросах
Вы не можете прикреплять файлы к сообщениям
Вы не можете скачивать файлы

!ВНИМАНИЕ!
Сайт не предоставляет электронные версии произведений, а занимается лишь коллекционированием и каталогизацией ссылок, присылаемых и публикуемых на форуме нашими читателями. Если вы являетесь правообладателем какого-либо представленного материала и не желаете, чтобы ссылка на него находилась в нашем каталоге, свяжитесь с нами, и мы незамедлительно удалим ее. Файлы для обмена на трекере предоставлены пользователями сайта, и администрация не несет ответственности за их содержание. Просьба не заливать файлы, защищенные авторскими правами, а также файлы нелегального содержания!