Важное объявление!
У Нас Все раздачи мультитрекерные, при нуле пиров в релизах, можете смело вставать на закачку!
 
Автор Сообщение

HUNTER

Стаж:
4 года 8 месяцев
Сообщений:
62116

Репутация: 101

[+] [-]
Вне форума [Профиль] [ЛС]

Даффи Дак: Фантастический остров / Daffy Duck's Movie: Fantastic Island
Страна: США
Жанр: мультфильм, комедия, семейный
Продолжительность: 01:18:03
Год выпуска: 1983
Перевод 1: Профессиональный (дублированный) СТС
Перевод 2: Авторский (одноголосый закадровый) Вартан Дохалов
Русские субтитры: нет
Оригинальная дорожка: английский
Режиссёр: Фриц Фрилинг, Чак Джонс, Роберт МакКимсон, Фил Монро / Friz Freleng, Chuck Jones, Robert McKimson, Phil Monroe
Роли озвучивали: Мэл Бланк, Джун Форэй, Лес Тремейн
Описание: Даффи Дак и Спиди Гонзалес попадают на необитаемый остров где находят колодец желаний. Даффи Дак желает сделать из острова курорт и за деньги исполнять желания.

Качество: WEB-DLRip [WEB-DL 1080p]
Формат: AVI
Видео: Xvid, 656x480 (1.37:1), 23.976 fps, XviD build 73 ~1080 kbps avg, 0.14 bit/pixel
Аудио №1: Mp3, 48 kHz, MPEG Layer 3, 2 ch, ~128.00 kbps avg Дубляж моно
Аудио №2: Mp3, 48 kHz, MPEG Layer 3, 2 ch, ~128.00 kbps avg Дохалов
Аудио №3: Mp3, 48 kHz, MPEG Layer 3, 2 ch, ~128.00 kbps avg Оригинал - отдельно
Субтитры: отсутствуют

Сравнение

http://screenshotcomparison.com/comparison/87422/picture:2 с этим + вдруг кому интересно VHS & DVB vs WEBDLRip

Подробные технические данные

Полное имя : Даффи Дак Фантастический остров 1983.aviФормат : AVIФормат/Информация : Audio Video InterleaveРазмер файла : 753 МбайтПродолжительность : 1 ч. 18 м.Общий поток : 1349 Кбит/секПрограмма кодирования : VirtualDubMod 1.5.10.2 (build 2540/release)Библиотека кодирования : VirtualDubMod build 2540/release
ВидеоИдентификатор : 0Формат : MPEG-4 VisualПрофиль формата : Advanced Simple@L5Параметр BVOP формата : 2Параметр QPel формата : НетПараметр GMC формата : Без точки переходаПараметр матрицы формата : Default (H.263)Идентификатор кодека : XVIDИдентификатор кодека/Подсказка : XviDПродолжительность : 1 ч. 18 м.Битрейт : 1081 Кбит/секШирина : 656 пикселейВысота : 480 пикселейСоотношение сторон : 4:3Частота кадров : 23,976 кадра/секЦветовое пространство : YUVСубдискретизация насыщенности : 4:2:0Битовая глубина : 8 битТип развёртки : ПрогрессивнаяМетод сжатия : С потерямиБит/(Пиксели*Кадры) : 0.143Размер потока : 604 Мбайт (80%)Библиотека кодирования : XviD 73
Аудио #1Идентификатор : 1Формат : MPEG AudioВерсия формата : Version 1Профиль формата : Layer 3Режим : Joint stereoРасширение режима : MS StereoИдентификатор кодека : 55Идентификатор кодека/Подсказка : MP3Продолжительность : 1 ч. 16 м.Вид битрейта : ПостоянныйБитрейт : 128 Кбит/секКаналы : 2 каналаЧастота : 48,0 КГцМетод сжатия : С потерямиРазмер потока : 70,2 Мбайт (9%)Выравнивание : Соединение по промежуткамПродолжительность промежутка : 42 мс. (1,02 видеокадр)Время предзагрузки промежутка : 504 мс.Библиотека кодирования : LAME3.99rНастройки программы : -m j -V 4 -q 2 -lowpass 17 -b 128
Аудио #2Идентификатор : 2Формат : MPEG AudioВерсия формата : Version 1Профиль формата : Layer 3Режим : Joint stereoРасширение режима : MS StereoИдентификатор кодека : 55Идентификатор кодека/Подсказка : MP3Продолжительность : 1 ч. 18 м.Вид битрейта : ПостоянныйБитрейт : 128 Кбит/секКаналы : 2 каналаЧастота : 48,0 КГцМетод сжатия : С потерямиРазмер потока : 71,5 Мбайт (9%)Выравнивание : Соединение по промежуткамПродолжительность промежутка : 42 мс. (1,00 видеокадр)Время предзагрузки промежутка : 504 мс.Библиотека кодирования : LAME3.99rНастройки программы : -m j -V 4 -q 2 -lowpass 17 -b 128

Скриншоты


_________________
Показать сообщения:    

Текущее время: Сегодня 21:28

Часовой пояс: GMT



Вы не можете начинать темы
Вы не можете отвечать на сообщения
Вы не можете редактировать свои сообщения
Вы не можете удалять свои сообщения
Вы не можете голосовать в опросах
Вы не можете прикреплять файлы к сообщениям
Вы не можете скачивать файлы
Наши партнеры: интернет магазин Ивановского трикотажа textilla.ru