Важное объявление!
У Нас Все раздачи мультитрекерные, при нуле пиров в релизах, можете смело вставать на закачку!
 
Автор Сообщение

HUNTER

Стаж:
4 года 10 месяцев
Сообщений:
65522

Репутация: 101

[+] [-]
Вне форума [Профиль] [ЛС]

Далекий гром / Distant thunder
-Страна: США
Жанр: драма
Год выпуска: 1988
Продолжительность: 01:31:41-Cубтитры: русские (Илья Ив) английские
Оригинальная аудиодорожка: английский-Режиссер: Рик Розенталь / Rick Rosenthal-В ролях: Ральф Маччио, Джон Литгоу, Керри Кин, Рэб Браун, Джанет Марголин, Дэнис Арндт, Джейми Шеридан, Том Бауэр, Джон Келли, Майкл Карри,
Хилари Стрэндж-Описание:
Литгоу уводит группу ветеранов Вьетнама, страдающих от эмоционального расстройства, подальше от общества в леса Северо-запада. Приезд его сына, однако, заставляет его задуматься над тем, чтобы опять вернуться к людям.-Сэмпл: Скачать-Тип релиза: WEB-DL 720p
Контейнер: MKV-Видео: 1280x718 (16:9); 3 928 Kbps; 23.976 fps; 0.178 bpp
Аудио: English; AC3; 48.0 KHz; 6ch; 384 Kbps

MediaInfo

Format : Matroska
Format version : Version 4 / Version 2
File size : 3.50 GiB
Duration : 1h 54mn
Overall bit rate : 4 399 Kbps
Encoded date : UTC 2015-11-22 11:23:50
Writing application : mkvmerge v8.3.0 ('Over the Horizon') 64bit
Writing library : libebml v1.3.1 + libmatroska v1.4.2
Attachements : poster.jpg
DURATION : 01:40:32.482000000
NUMBER_OF_FRAMES : 757
NUMBER_OF_BYTES : 41541
_STATISTICS_WRITING_APP : mkvmerge v8.3.0 ('Over the Horizon') 64bit
_STATISTICS_WRITING_DATE_UT : 2015-11-22 11:23:50
_STATISTICS_TAGS : BPS DURATION NUMBER_OF_FRAMES NUMBER_OF_BYTES
Video
ID : 1
Format : AVC
Format/Info : Advanced Video Codec
Format profile : High@L3.1
Format settings, CABAC : No
Format settings, ReFrames : 2 frames
Codec ID : V_MPEG4/ISO/AVC
Duration : 1h 54mn
Bit rate : 3 928 Kbps
Width : 1 280 pixels
Height : 718 pixels
Display aspect ratio : 16:9
Frame rate mode : Constant
Frame rate : 23.976 fps
Color space : YUV
Chroma subsampling : 4:2:0
Bit depth : 8 bits
Scan type : Progressive
Bits/(Pixel*Frame) : 0.178
Stream size : 3.13 GiB (89%)
Language : English
Default : Yes
Forced : No
Color range : Limited
Color primaries : BT.709
Transfer characteristics : BT.709
Matrix coefficients : BT.709
Audio
ID : 2
Format : AC-3
Format/Info : Audio Coding 3
Mode extension : CM (complete main)
Format settings, Endianness : Big
Codec ID : A_AC3
Duration : 1h 54mn
Bit rate mode : Constant
Bit rate : 384 Kbps
Channel(s) : 6 channels
Channel positions : Front: L C R, Side: L R, LFE
Sampling rate : 48.0 KHz
Compression mode : Lossy
Stream size : 313 MiB (9%)
Language : English
Default : Yes
Forced : No
Text #1
ID : 3
Format : UTF-8
Codec ID : S_TEXT/UTF8
Codec ID/Info : UTF-8 Plain Text
Language : Russian
Default : Yes
Forced : No
Text #2
ID : 4
Format : UTF-8
Codec ID : S_TEXT/UTF8
Codec ID/Info : UTF-8 Plain Text
Language : English
Default : No
Forced : No
Menu
00:00:00.000 : en:Chapter 1
00:15:33.000 : en:Chapter 2
00:31:18.000 : en:Chapter 3
00:45:26.000 : en:Chapter 4
01:00:37.000 : en:Chapter 5
01:16:36.000 : en:Chapter 6
01:30:18.000 : en:Chapter 7
01:44:50.000 : en:Chapter 8

Скриншоты


_________________
Показать сообщения:    

Текущее время: Сегодня 19:01

Часовой пояс: GMT



Вы не можете начинать темы
Вы не можете отвечать на сообщения
Вы не можете редактировать свои сообщения
Вы не можете удалять свои сообщения
Вы не можете голосовать в опросах
Вы не можете прикреплять файлы к сообщениям
Вы не можете скачивать файлы