Важное объявление!
У Нас Все раздачи мультитрекерные, при нуле пиров в релизах, можете смело вставать на закачку!
Статистика раздачи
Размер:     |    Зарегистрирован:     |    Скачан:     |   
Нет
 
     
 
 
Автор Сообщение

HUNTER

Стаж:
5 лет
Сообщений:
67992

Репутация: 101

[+] [-]
Вне форума [Профиль] [ЛС]

Даже ангелы бывают жестоки / Anche Gli Angeli Tirano Di Destro
-Страна: Италия
Жанр: Комедия, криминал
Год выпуска: 1974
Продолжительность: 01:54:09-Перевод: Одноголосый закадровый Алексей Яковлев-Оригинальная аудиодорожка: итальянский-Режиссер: Энцо Барбони / Enzo Barboni-В ролях: Джулиано Джемма, Рики Бруч, Лаура Бекерелли, Фортунато Арена, Карла Манчини, Паоло Зилли, Доминик Барто, Риккардо Пиццути, Джузеппе Кастеллано, Эдоардо Файета-Описание:
Санни, молодой пройдоха без гроша в кармане, мечтает прославиться и стать большим гангстером. И тут судьба подкидывает ему шанс. В руки Санни попадают поддельные паспорта, предназначенные для побега из тюрьмы известного бандита Джо Тигра и его людей. Представив случай как свою заслугу, Санни получает в награду контроль над одной из улиц Нью-Йорка. Как бонус, на улице располагается боксерский зал, но вот незадача, там еще есть церковь с очень непростым священником.-Доп. информация: Русская дорожка синхронизирована не идеально, есть места + ~35-80мс.-Сэмпл: Скачать-Тип релиза: BDRemux 1080p
Контейнер: MKV-Видео: MPEG-4 AVC Video; 35214 kbps; 1080p; 24.000 fps; 16:9; High Profile 4.1
Аудио 1: Russian; AC3; 48.0 KHz; 2ch; 192 Kbps VO
Аудио 2: Italian; FLAC; 48.0 KHz; 2ch; 370 Kbps

MediaInfo

Format : Matroska
Format version : Version 4 / Version 2
File size : 28.5 GiB
Duration : 1h 54mn
Overall bit rate mode : Variable
Overall bit rate : 35.8 Mbps
Encoded date : UTC 2016-10-05 09:19:16
Writing application : mkvmerge v8.3.0 ('Over the Horizon') 64bit
Writing library : libebml v1.3.1 + libmatroska v1.4.2
Video
ID : 1
Format : AVC
Format/Info : Advanced Video Codec
Format profile : High@L4.1
Format settings, CABAC : Yes
Format settings, ReFrames : 4 frames
Codec ID : V_MPEG4/ISO/AVC
Duration : 1h 54mn
Bit rate mode : Constant
Bit rate : 36.0 Mbps
Width : 1 920 pixels
Height : 1 080 pixels
Display aspect ratio : 16:9
Frame rate mode : Constant
Frame rate : 24.000 fps
Color space : YUV
Chroma subsampling : 4:2:0
Bit depth : 8 bits
Scan type : Progressive
Bits/(Pixel*Frame) : 0.723
Stream size : 28.1 GiB (98%)
Default : Yes
Forced : No
Audio #1
ID : 2
Format : AC-3
Format/Info : Audio Coding 3
Mode extension : CM (complete main)
Format settings, Endianness : Big
Codec ID : A_AC3
Duration : 1h 54mn
Bit rate mode : Constant
Bit rate : 192 Kbps
Channel(s) : 2 channels
Channel positions : Front: L R
Sampling rate : 48.0 KHz
Frame rate : 31.250 fps (1536 spf)
Compression mode : Lossy
Stream size : 157 MiB (1%)
Title : VO Алексей Яковлев
Language : Russian
Default : Yes
Forced : No
Audio #2
ID : 3
Format : FLAC
Format/Info : Free Lossless Audio Codec
Codec ID : A_FLAC
Duration : 1h 54mn
Bit rate mode : Variable
Bit rate : 370 Kbps
Channel(s) : 2 channels
Channel positions : Front: L R
Sampling rate : 48.0 KHz
Frame rate : 11.719 fps (4096 spf)
Bit depth : 16 bits
Stream size : 302 MiB (1%)
Writing library : libFLAC 1.3.1 (UTC 2014-11-25)
Language : Italian
Default : No
Forced : No

Скриншоты


_________________
Показать сообщения:    

Текущее время: Сегодня 20:47

Часовой пояс: GMT



Вы не можете начинать темы
Вы не можете отвечать на сообщения
Вы не можете редактировать свои сообщения
Вы не можете удалять свои сообщения
Вы не можете голосовать в опросах
Вы не можете прикреплять файлы к сообщениям
Вы не можете скачивать файлы