Давно пора / High Time (Блейк Эдвардс / Blake Edwards) [1960, США, мюзикл, комедия, BDRip 720p] MVO (Первый канал) + Original Eng :: Ивановский Торрент трекер
Важное объявление!
У Нас Все раздачи мультитрекерные, при нуле пиров в релизах, можете смело вставать на закачку!
 
Автор Сообщение

HUNTER

Стаж:
4 года 11 месяцев
Сообщений:
66045

Репутация: 101

[+] [-]
Вне форума [Профиль] [ЛС]

Давно пора / High Time
Страна: США
Жанр: мюзикл, комедия
Год выпуска: 1960
Продолжительность: 01:42:50
Перевод: Профессиональный (многоголосый закадровый) - Первый канал
Cубтитры: нет
Оригинальная аудиодорожка: английский
Режиссер: Блейк Эдвардс / Blake Edwards
В ролях: Бинг Кросби, Фабиан, Тьюзди Уэлд, Николь Море, Ричард Беймер, Патрик Адьярте, Джимми Бойд, Ивонн Крэйг, Гэвин МакЛауд, Кэннет МакКенна
Описание: 51-летний богатый ресторатор и вдовец Гарви Говард преподносит своей семье неожиданный сюрприз — решает получить высшее образование. Взрослые дочь и сын — в шоке, но отец непреклонен. Отлично сдав экзамены в институт, он селится в общежитии и с головой погружается в учебу. А вскоре попадает в тройку лучших студентов и завоевывает искреннее уважение сокурсников. К тому же, у него завязываются романтические отношения с преподавателем французской литературы профессором Элен Готье…
Доп. информация:


За дорожку с переводом спасибо StudioRAK
Сэмпл: http://sendfile.su/1042502
Тип релиза: BDRip 720p (High.Time.1960.720p.BluRay.DD4.0.x264-VietHD)
Контейнер: MKV
Видео: AVC, 1280x544 (4:3), L4.1, 23,976fps, 8197kbps, 0.491bit/pixel
Аудио 1: Russian: AC3, 48000Hz, 2ch, 192kbps
Аудио 2: English: AC3, 48000Hz, 4ch, 640kbps

MediaInfo

Общее
Уникальный идентификатор : 186663975367082867882373383201726539143 (0x8C6E2C89489EE0269C9B7540C86A2587)
Полное имя : T:\High Time (BDRip 720p).mkv
Формат : Matroska
Версия формата : Version 4 / Version 2
Размер файла : 6,62 Гбайт
Продолжительность : 1 ч. 42 м.
Общий поток : 9212 Кбит/сек
Дата кодирования : UTC 2014-10-31 16:02:43
Программа кодирования : mkvmerge v7.1.0 ('Good Love') 32bit built on Jul 27 2014 12:59:18
Библиотека кодирования : libebml v1.3.0 + libmatroska v1.4.1
_STATISTICS_WRITING_APP : mkvmerge v7.1.0 ('Good Love') 32bit built on Jul 27 2014 12:59:18
_STATISTICS_WRITING_DATE_UTC : 2014-10-31 16:02:43
_STATISTICS_TAGS : BPS DURATION NUMBER_OF_FRAMES NUMBER_OF_BYTES
DURATION : 01:42:47.200000000
NUMBER_OF_FRAMES : 192725
NUMBER_OF_BYTES : 148012800
Видео
Идентификатор : 1
Формат : AVC
Формат/Информация : Advanced Video Codec
Профиль формата : High@L4.1
Параметр CABAC формата : Да
Параметр ReFrames формата : 12 кадров
Идентификатор кодека : V_MPEG4/ISO/AVC
Продолжительность : 1 ч. 42 м.
Битрейт : 8197 Кбит/сек
Ширина : 1280 пикселей
Высота : 544 пикселя
Соотношение сторон : 2,35:1
Соотношение сторон в оригинале : 2,35:1
Режим частоты кадров : Постоянный
Частота кадров : 23,976 кадра/сек
Цветовое пространство : YUV
Субдискретизация насыщенности : 4:2:0
Битовая глубина : 8 бит
Тип развёртки : Прогрессивная
Бит/(Пиксели*Кадры) : 0.491
Размер потока : 5,89 Гбайт (89%)
Библиотека кодирования : x264 core 142 r2431+42 c69a006 tMod [8-bit@4:2:0 X86_64]
Настройки программы : cabac=1 / ref=12 / deblock=1:-3:-3 / analyse=0x3:0x133 / me=umh / subme=10 / psy=1 / fade_compensate=0.00 / psy_rd=1.10:0.00 / mixed_ref=1 / me_range=24 / chroma_me=1 / trellis=2 / 8x8dct=1 / cqm=0 / deadzone=21,11 / fast_pskip=0 / chroma_qp_offset=-2 / threads=12 / lookahead_threads=2 / sliced_threads=0 / nr=0 / decimate=0 / interlaced=0 / bluray_compat=0 / constrained_intra=0 / fgo=0 / bframes=7 / b_pyramid=2 / b_adapt=2 / b_bias=0 / direct=3 / weightb=1 / open_gop=0 / weightp=2 / keyint=250 / keyint_min=23 / scenecut=40 / intra_refresh=0 / rc=crf / mbtree=0 / crf=16.1000 / qcomp=0.65 / qpmin=0:0:0 / qpmax=69:69:69 / qpstep=4 / ip_ratio=1.20 / pb_ratio=1.10 / aq=1:0.60 / aq-sensitivity=10.00 / aq-factor=1.00:1.00:1.00 / aq2=0 / aq3=0
Язык : English
Default : Да
Forced : Нет
Коэффициенты матрицы : BT.709
_STATISTICS_WRITING_APP : mkvmerge v7.1.0 ('Good Love') 32bit built on Jul 27 2014 12:59:18
_STATISTICS_WRITING_DATE_UTC : 2014-10-31 16:02:43
_STATISTICS_TAGS : BPS DURATION NUMBER_OF_FRAMES NUMBER_OF_BYTES
DURATION : 01:42:49.706000000
NUMBER_OF_FRAMES : 147925
NUMBER_OF_BYTES : 6461178348
Аудио #1
Идентификатор : 2
Формат : AC-3
Формат/Информация : Audio Coding 3
Расширение режима : CM (complete main)
Параметр Endianness формата : Big
Идентификатор кодека : A_AC3
Продолжительность : 1 ч. 42 м.
Вид битрейта : Постоянный
Битрейт : 192 Кбит/сек
Каналы : 2 канала
Расположение каналов : Front: L R
Частота : 48,0 КГц
Битовая глубина : 16 бит
Метод сжатия : С потерями
Размер потока : 141 Мбайт (2%)
Заголовок : Первый канал
Язык : Russian
Default : Да
Forced : Нет
Аудио #2
Идентификатор : 3
Формат : AC-3
Формат/Информация : Audio Coding 3
Расширение режима : CM (complete main)
Параметр Endianness формата : Big
Идентификатор кодека : A_AC3
Продолжительность : 1 ч. 42 м.
Вид битрейта : Постоянный
Битрейт : 640 Кбит/сек
Каналы : 4 канала
Расположение каналов : Front: L C R, Back: C
Частота : 48,0 КГц
Битовая глубина : 16 бит
Метод сжатия : С потерями
Размер потока : 471 Мбайт (7%)
Язык : English
Default : Нет
Forced : Нет
Меню
00:00:00.000 : en:00:00:00.000
00:09:44.626 : en:00:09:44.626
00:15:27.844 : en:00:15:27.844
00:20:27.977 : en:00:20:27.977
00:29:35.691 : en:00:29:35.691
00:40:31.763 : en:00:40:31.763
00:53:19.071 : en:00:53:19.071
00:56:41.148 : en:00:56:41.148
01:06:11.134 : en:01:06:11.134
01:24:26.561 : en:01:24:26.561
01:33:08.625 : en:01:33:08.625
01:38:00.041 : en:01:38:00.041

x264 info

x264 iNFO:
x264 [info]: frame I:853 Avg QP:16.92 size:123039
x264 [info]: frame P:29947 Avg QP:17.92 size: 63603
x264 [info]: frame B:117125 Avg QP:18.63 size: 38006
x264 [info]: consecutive B-frames: 1.0% 0.9% 3.8% 21.6% 23.9% 42.9% 4.9% 1.1%
encoded 147925 frames, 9.888 fps, 8377.94 kb/s, 6161.9 MB, encoding duration 4:09:20

Скриншоты


_________________
Показать сообщения:    

Текущее время: Сегодня 20:38

Часовой пояс: GMT



Вы не можете начинать темы
Вы не можете отвечать на сообщения
Вы не можете редактировать свои сообщения
Вы не можете удалять свои сообщения
Вы не можете голосовать в опросах
Вы не можете прикреплять файлы к сообщениям
Вы не можете скачивать файлы