Ивановский Торрент трекер
Яндекс.Погода
 

[Цитировать]
HUNTER

Давайте потанцуем / Shall We Dance
Страна: США
Студия: Pandro S. Berman Production, A, RKO Radio Pictures Inc.
Жанр: мюзикл, мелодрама, комедия
Год выпуска: 1937
Продолжительность: 01:48:51
Перевод: Профессиональный (многоголосый закадровый) Светла
Cубтитры: английские
Оригинальная аудиодорожка: английский
Режиссер: Марк Сэндрич / Mark Sandrich
В ролях: Фред Астер, Джинджер Роджерс, Эдвард Эверетт Хортон, Эрик Блор, Джером Кауэн, Кетти Галлиан, Уильям Брисбейн, Харриет Хоктор, Норман Эйнсли, Бен Александр
Описание: Танцовщик Пит Питере — гениальный мастер своего жанра. Его импресарио и продюсер Джеффри, чтобы заинтриговать публику, выдаёт его за русского по фамилии Петров. Однако «Петрова» все время тянет танцевать что-то «несерьезное», в основном степ.
К тому же он неравнодушен к танцовщице и актрисе Линде Кин, которая успешно выступает с танцевальными номерами. И он решает, что девушка должна танцевать только с ним. Чтобы познакомиться и завоевать сердце красавицы, танцор идет на различные ухищрения, порой очень комичные…


Sample
Тип релиза: WEB-DL 720p
Контейнер: MKV
Видео: MPEG4 AVC Video, H264, 4:3, 982x720, 23.976 fps, 3934 kbps
Аудио: Russian (AC3, 2 ch, 192 kbps, 16 bits, 48.0 KHz) - MVO
Аудио 2: English (AC3, 1 ch, 192 kbps, 16 bits, 48.0 KHz) - оригинал DVD R1
Аудио 3: English (AAC, 2 ch, 103 kbps, 16 bits, 48.0 KHz) - оригинал WEB-DL
Аудио 4: English (AC3, 2 ch, 192 kbps, 16 bits, 48.0 KHz) - комментарии by Kevin Cole and Hugh Martin
Формат субтитров: softsub (SRT)

MediaInfo

General
Unique ID : 171491408983490888633643775118365817601 (0x81040B420DB1C94CB94E608D50B1FB01)
Complete name : K:\Shall We Dance 1937 WEB-DL 720p.mkv
Format : Matroska
Format version : Version 4 / Version 2
File size : 3.56 GiB
Duration : 1h 48mn
Overall bit rate : 4 688 Kbps
Encoded date : UTC 2015-08-04 14:09:52
Writing application : mkvmerge v6.1.0 ('Old Devil') built on Mar 2 2013 14:32:37
Writing library : libebml v1.3.0 + libmatroska v1.4.0
Video
ID : 1
Format : AVC
Format/Info : Advanced Video Codec
Format profile : High@L3.1
Format settings, CABAC : No
Format settings, ReFrames : 2 frames
Codec ID : V_MPEG4/ISO/AVC
Duration : 1h 48mn
Width : 982 pixels
Height : 720 pixels
Display aspect ratio : 4:3
Frame rate mode : Constant
Frame rate : 23.976 fps
Color space : YUV
Chroma subsampling : 4:2:0
Bit depth : 8 bits
Scan type : Progressive
Language : English
Default : Yes
Forced : No
Color primaries : BT.709
Transfer characteristics : BT.709
Matrix coefficients : BT.709
Audio #1
ID : 2
Format : AC-3
Format/Info : Audio Coding 3
Mode extension : CM (complete main)
Format settings, Endianness : Big
Codec ID : A_AC3
Duration : 1h 48mn
Bit rate mode : Constant
Bit rate : 192 Kbps
Channel count : 2 channels
Channel positions : Front: L R
Sampling rate : 48.0 KHz
Bit depth : 16 bits
Compression mode : Lossy
Stream size : 150 MiB (4%)
Language : Russian
Default : Yes
Forced : Yes
Audio #2
ID : 3
Format : AC-3
Format/Info : Audio Coding 3
Mode extension : CM (complete main)
Format settings, Endianness : Big
Codec ID : A_AC3
Duration : 1h 48mn
Bit rate mode : Constant
Bit rate : 192 Kbps
Channel count : 1 channel
Channel positions : Front: C
Sampling rate : 48.0 KHz
Bit depth : 16 bits
Compression mode : Lossy
Stream size : 150 MiB (4%)
Title : DVD R1
Language : English
Default : No
Forced : No
Audio #3
ID : 4
Format : AAC
Format/Info : Advanced Audio Codec
Format profile : LC
Codec ID : A_AAC
Duration : 1h 48mn
Channel count : 2 channels
Channel positions : Front: L R
Sampling rate : 48.0 KHz
Compression mode : Lossy
Title : WEB-DL
Language : English
Default : No
Forced : No
Audio #4
ID : 5
Format : AC-3
Format/Info : Audio Coding 3
Mode extension : CM (complete main)
Format settings, Endianness : Big
Codec ID : A_AC3
Duration : 1h 48mn
Bit rate mode : Constant
Bit rate : 192 Kbps
Channel count : 2 channels
Channel positions : Front: L R
Sampling rate : 48.0 KHz
Bit depth : 16 bits
Compression mode : Lossy
Stream size : 150 MiB (4%)
Title : commentary
Language : English
Default : No
Forced : No
Text
ID : 6
Format : UTF-8
Codec ID : S_TEXT/UTF8
Codec ID/Info : UTF-8 Plain Text
Language : English
Default : No
Forced : No
Menu
00:00:00.000 : en:Credits
00:01:40.000 : en:The Loves of Petrov
00:06:40.000 : en:Too Many Admirers
00:10:15.000 : en:Petrov With a Twist
00:12:36.000 : en:Stuck On His Idea
00:15:07.000 : en:American Boy's Game
00:18:16.000 : en:Slap That Bass
00:24:03.000 : en:Getting Choppy
00:28:39.000 : en:Walking the Dog
00:32:04.000 : en:Saving a Trip
00:34:05.000 : en:Walking the Dog Reprise
00:35:40.000 : en:Beginner's Luck
00:37:18.000 : en:Rumor Has It
00:41:22.000 : en:Abandon Ship
00:45:22.000 : en:Neighbors
00:50:06.000 : en:Farewell Dinner
00:52:51.000 : en:They All Laughed (Song)
00:54:54.000 : en:They All Laughed (Dance)
00:59:33.000 : en:Shots In the Dark
01:02:07.000 : en:Management's Compliments
01:04:55.000 : en:How About Those Pictures?
01:08:53.000 : en:Let's Call the Whole Thing Off
01:14:52.000 : en:Grounds for Divorce
01:17:32.000 : en:Lady Denise Arrives
01:19:27.000 : en:They Can't Take That Away from Me
01:23:08.000 : en:Key to Happiness
01:26:36.000 : en:Ladies Out the Door
01:30:06.000 : en:A Merger
01:32:35.000 : en:Cecil's Jail Spell
01:36:45.000 : en:Shall We Dance (Ballet)
01:44:34.000 : en:Shall We Dance (Song)
01:47:43.000 : en:Finale and Cast List

Скриншоты

Показать сообщения:    

Текущее время: 21-Окт 05:58

Часовой пояс: UTC - 1


Вы не можете начинать темы
Вы не можете отвечать на сообщения
Вы не можете редактировать свои сообщения
Вы не можете удалять свои сообщения
Вы не можете голосовать в опросах
Вы не можете прикреплять файлы к сообщениям
Вы не можете скачивать файлы

!ВНИМАНИЕ!
Сайт не предоставляет электронные версии произведений, а занимается лишь коллекционированием и каталогизацией ссылок, присылаемых и публикуемых на форуме нашими читателями. Если вы являетесь правообладателем какого-либо представленного материала и не желаете, чтобы ссылка на него находилась в нашем каталоге, свяжитесь с нами, и мы незамедлительно удалим ее. Файлы для обмена на трекере предоставлены пользователями сайта, и администрация не несет ответственности за их содержание. Просьба не заливать файлы, защищенные авторскими правами, а также файлы нелегального содержания!