Важное объявление!
У Нас Все раздачи мультитрекерные, при нуле пиров в релизах, можете смело вставать на закачку!
Статистика раздачи
Размер:     |    Зарегистрирован:     |    Скачан:     |   
Нет
 
     
 
 
Автор Сообщение

mihis

[Профиль] [ЛС]

Гудини / Houdini«He made a life out of cheating death»
Год выпуска: 1998
Страна: США, Trilogy Entertainment Group
Жанр: Драма, биографический
Продолжительность: 01:30:55
Перевод: Профессиональный (многоголосый, закадровый)
Субтитры: Нет
Режиссер: Пен Деншэм
В ролях: Джонатон Шаех, Стэйси Эдвардс, Пол Сорвино, Риа Перлмэн, Дэвид Уорнер, Марк Руффало, Грэйс Забриски, Рон Перлман, Карл Мэкинен, Джуди Гисон, Фрэнк МакРэй, Джордж Сигал, Эмиль Хирш, Курт Лоуэнс, Джек МакГи, Дэвид Морлэнд, Джек Найт, Джек Марстон, Карен Хартман, Эндре Хулс, Мартин МакДугалл, Майкл Галлахер, Лаура Паллас, Дэвид Бикфорд, Дарен Флам, Джеффри Пирс, Том Бэйли, Билл Мойнихэн, Роб Элк, Джошуа Бреслоу
Описание: Биографическая драма о Гарри Гудини, самом знаменитом фокуснике XX века. Он носил имя Эрик Вейсс. Однажды брат принес ему книжку с описаниями деяний знаменитого французского фокусника Роберта Гудина. С тех пор судьба Эрика была решена — через год он становится Гарри Гудини... Фильм рассказывает о нем самом, его близких, любви, жизненном пути к славе и бессмертию. Истории восхождения от бедности и безызвестности всегда доставляют удовольствие зрителю. Создатели фильма весьма ответственно подошли к воссозданию атмосферы начала века - костюмы, декорации, образы героев очень точны.

Качество: VHSRip
Формат: AVI
Видео кодек: DivX
Аудио кодек: AC3
Видео: 640x480 (1.33:1), 25 fps, DivX Codec 6.8.3 ~1942 kbps avg, 0.25 bit/pixel
Аудио: 48 kHz, AC3 Dolby Digital, 2/0 (L,R) ch, ~192 kbps

MediaInfo

General
Complete name : D:\Video\Gudini.1998.avi
Format : AVI
Format/Info : Audio Video Interleave
File size : 1.36 GiB
Duration : 1h 30mn
Overall bit rate : 2 144 Kbps
Writing application : VirtualDubModRus 1.5.10.2 (build 2542/release)
Writing library : VirtualDubMod build 2542/release
Video
ID : 0
Format : MPEG-4 Visual
Format settings, BVOP : 1
Format settings, QPel : No
Format settings, GMC : No warppoints
Format settings, Matrix : Default (H.263)
Muxing mode : Packed bitstream
Codec ID : DX50
Codec ID/Hint : DivX 5
Duration : 1h 30mn
Bit rate : 1 943 Kbps
Width : 640 pixels
Height : 480 pixels
Display aspect ratio : 4:3
Frame rate : 25.000 fps
Color space : YUV
Chroma subsampling : 4:2:0
Bit depth : 8 bits
Scan type : Progressive
Compression mode : Lossy
Bits/(Pixel*Frame) : 0.253
Stream size : 1.23 GiB (91%)
Writing library : DivX 6.8.3-6.8.4 (UTC 2008-06-07)
Audio
ID : 1
Format : AC-3
Format/Info : Audio Coding 3
Mode extension : CM (complete main)
Format settings, Endianness : Big
Codec ID : 2000
Duration : 1h 30mn
Bit rate mode : Constant
Bit rate : 192 Kbps
Channel(s) : 2 channels
Channel positions : Front: L R
Sampling rate : 48.0 KHz
Bit depth : 16 bits
Compression mode : Lossy
Delay relative to video : 8ms
Stream size : 125 MiB (9%)
Alignment : Split accross interleaves
Interleave, duration : 40 ms (1.00 video frame)
Interleave, preload duration : 500 ms
 
Показать сообщения:    

Текущее время: Сегодня 07:00

Часовой пояс: GMT



Вы не можете начинать темы
Вы не можете отвечать на сообщения
Вы не можете редактировать свои сообщения
Вы не можете удалять свои сообщения
Вы не можете голосовать в опросах
Вы не можете прикреплять файлы к сообщениям
Вы не можете скачивать файлы