Важное объявление!
У Нас Все раздачи мультитрекерные, при нуле пиров в релизах, можете смело вставать на закачку!
Статистика раздачи
Размер:     |    Зарегистрирован:     |    Скачан:     |   
Нет
 
     
 
 
Автор Сообщение

HUNTER

Стаж:
5 лет
Сообщений:
68415

Репутация: 101

[+] [-]
Вне форума [Профиль] [ЛС]

Губная помада / Lipstick
Страна: США
Студия: Paramount
Жанр: триллер, судебная драма
Год выпуска: 1976
Продолжительность: 01:29:08-Перевод: Авторский (одноголосый закадровый) Алексей Михалёв
Оригинальная аудиодорожка: английская
Русские субтитры: нет-Режиссер: Ламонт Джонсон / Lamont Johnson-В ролях: Марго Хемингуэй, Мюриэл Хемингуэй, Крис Сарандон, Энн Бэнкрофт, Перри Кинг, Робин Гаммелл, Уилльям Пол Бернс и др.-Описание: После гибели в автокатастрофе родителей сестры МакКормик живут вдвоем. Старшая – Крисси – работает фотомоделью, ее портреты развешаны по всему городу. Младшая – Кэти – еще учится в школе, и тайно влюблена в своего учителя музыки. Но мистер Стюарт вовсе не такой милый человек, каким всем кажется. Под маской улыбчивого педагога скрывается похотливый и жестокий маниакал. Мистер Стюарт, воспользовавшись удобным случаем, насилует Крисси, и теперь двум сестрам предстоит пройти очень неприятную процедуру судебного разбирательства.-Меню: есть, русское, статичное-Сэмпл: http://multi-up.com/1093503-Тип релиза: DVD5 (Custom)
Контейнер: DVD-Video-Видео: MPEG Video, NTSC, 720x480 ,16:9, 5758 Кбит/сек, 29,970 кадр/сек
Аудио 1: 48 kHz, AC3 Dolby Digital, 2/0 (L,R) ch, ~192.00 kbps avg (RUS)
Аудио 2: 48 kHz, AC3 Dolby Digital, 2/0 (L,R) ch, ~192.00 kbps avg (ENG)
Субтитры: Английские

Используемые программы

PGC Demux - разборка на составляющие
DVDLabPro - создание шаблона для ДВД
MuxMan - предварительная сборка
DVDRemake - окончательная сборка
Photoshop - Работа с меню
DVDSubEdit - работа с подсветками к меню
Sony Vegas - синхронизация звука
Belight и Besweet - распаковка звука в WAV

Скриншоты настройки звука в Beelight

Скриншоты настройки звука в Sony Vegas

Отчёт MediaInfo

Общее
Полное имя : D:\FILES\Губная помада (1976) AVO Михалёв\VTS_01_2.VOB
Формат : MPEG-PS
Размер файла : 1024 Мбайт
Продолжительность : 22 м.
Режим общего битрейта : Переменный
Общий поток : 6267 Кбит/сек
Видео
Идентификатор : 224 (0xE0)
Формат : MPEG Video
Версия формата : Version 2
Профиль формата : Main@Main
Параметр BVOP формата : Да
Параметр матрицы формата : Выборочная
Параметр GOP формата : Variable
Продолжительность : 22 м.
Вид битрейта : Переменный
Битрейт : 5758 Кбит/сек
Максимальный битрейт : 8900 Кбит/сек
Ширина : 720 пикселей
Высота : 480 пикселей
Соотношение сторон : 16:9
Частота кадров : 29,970 (30000/1001) кадров/сек
Стандарт вещания : NTSC
Цветовое пространство : YUV
Субдискретизация насыщенности : 4:2:0
Битовая глубина : 8 бит
Метод сжатия : С потерями
Бит/(Пиксели*Кадры) : 0.556
Временной код первого кадра : 01:22:23;08
Оригинал временного кода : Group of pictures header
GOP, открыто/закрыто : Открыто
Размер потока : 941 Мбайт (92%)
Аудио #1
Идентификатор : 189 (0xBD)-128 (0x80)
Формат : AC-3
Формат/Информация : Audio Coding 3
Расширение режима : CM (complete main)
Параметр Endianness формата : Big
Режим смешивания : DVD-Video
Продолжительность : 22 м.
Вид битрейта : Постоянный
Битрейт : 192 Кбит/сек
Каналы : 2 канала
Расположение каналов : Front: L R
Частота : 48,0 КГц
Частота кадров : 31,250 кадров/сек (1536 spf)
Метод сжатия : С потерями
Задержка видео : -353 мс.
Размер потока : 31,4 Мбайт (3%)
Аудио #2
Идентификатор : 189 (0xBD)-129 (0x81)
Формат : AC-3
Формат/Информация : Audio Coding 3
Расширение режима : CM (complete main)
Параметр Endianness формата : Big
Режим смешивания : DVD-Video
Продолжительность : 22 м.
Вид битрейта : Постоянный
Битрейт : 192 Кбит/сек
Каналы : 2 канала
Расположение каналов : Front: L R
Частота : 48,0 КГц
Частота кадров : 31,250 кадров/сек (1536 spf)
Метод сжатия : С потерями
Задержка видео : -353 мс.
Размер потока : 31,4 Мбайт (3%)
Текст #1
Идентификатор : 189 (0xBD)-32 (0x20)
Формат : RLE
Формат/Информация : Run-length encoding
Режим смешивания : DVD-Video
Продолжительность : 22 м.
Задержка видео : 8 с. 141 мс.
Текст #2
Идентификатор : 224 (0xE0)-CC3
Формат : EIA-608
Режим смешивания, доп. информация : Muxed in Video #1
Вид битрейта : Постоянный
Размер потока : 0,00 байт (0%)
Меню

Скриншоты меню

Скриншоты


_________________
Показать сообщения:    

Текущее время: Сегодня 09:02

Часовой пояс: GMT



Вы не можете начинать темы
Вы не можете отвечать на сообщения
Вы не можете редактировать свои сообщения
Вы не можете удалять свои сообщения
Вы не можете голосовать в опросах
Вы не можете прикреплять файлы к сообщениям
Вы не можете скачивать файлы