Ивановский Торрент трекер
Яндекс.Погода
 

[Цитировать]
HUNTER

Губка Боб
The SpongeBob Movie: Sponge Out of Water
«Всё квадратное станет явным»
- Страна: США
Жанр: комедия, приключения, семейный
Продолжительность: 01:32:36
Год выпуска: 2015
Перевод: Профессиональный (дублированный) Blu-ray CEE
Русские субтитры: есть
Режиссёр: Пол Тиббит / Paul Tibbitt
В ролях и озвучивали:
Антонио Бандерас | Antonio Banderas
Том Кенни, Эрик Бауза, Тим Конуэй, Эдди Дизен, Роб Полсен, Кевин Майкл Ричардсон, Эйприл Стюарт, Кри Саммер, Билли Уэст-ОписаниеВсемирный любимчик со дна океана Губка Боб Квадратные Штаны должен спасти свой глубоководный мир, но для этого ему и его друзьям придется выбраться на сушу и оказаться в нашем.-
«Гу́бка Боб в 3D» (The SpongeBob Movie: Sponge Out of Water) производства Nickelodeon Movies и Paramount Animation— второй полнометражный мультипликационный фильм по мотивам мультсериала «Губка Боб Квадратные Штаны» режиссёра Пола Тиббита. Фильм совмещает игру живых актёров, компьютерную и рисованную анимацию. Является сиквелом фильма 2004 года «Губка Боб Квадратные Штаны»
Релиз:

Сэмпл

IMDb: 6.40 (13 944)
Качество: BDRip 1080p THE_SPONGEBOB_MOVIE_SPONGE_OUT_OF_WATER_REMUX_HDCLUB
Формат: MKV
Видео: AVC 13.1 Mbps 1920 x 1080 (1.778) 23.976 fps
Аудио: AC-3 640 Kbps 6 channels, 48.0 KHz Rus Blu-ray CEE
Аудио 2: AC-3 640 Kbps 6 channels, 48.0 KHz Ukr Blu-ray CEE
Аудио 3: DTS 1509 Kbps 6 channels, 48.0 KHz Eng
Субтитры: Rus (Forced, Full), Eng (Full, SDH)

MI | Log

Log
x264 [info]: frame I:1335 Avg QP:13.00 size:385647
x264 [info]: frame P:43089 Avg QP:14.34 size:112858
x264 [info]: frame B:88750 Avg QP:15.88 size: 44402
x264 [info]: consecutive B-frames: 4.5% 12.1% 43.6% 17.2% 9.8% 9.4% 1.5% 0.8% 1.1%
x264 [info]: mb I I16..4: 32.8% 55.0% 12.2%
x264 [info]: mb P I16..4: 9.8% 16.3% 2.2% P16..4: 26.1% 12.6% 8.9% 2.3% 0.8% skip:21.1%
x264 [info]: mb B I16..4: 4.6% 5.0% 0.5% B16..8: 25.9% 12.0% 2.7% direct: 7.2% skip:42.1% L0:33.3% L1:48.8% BI:17.9%
x264 [info]: 8x8 transform intra:54.3% inter:37.2%
x264 [info]: direct mvs spatial:99.8% temporal:0.2%
x264 [info]: coded y,uvDC,uvAC intra: 92.1% 97.2% 92.4% inter: 20.6% 27.4% 14.5%
x264 [info]: i16 v,h,dc,p: 6% 7% 57% 30%
x264 [info]: i8 v,h,dc,ddl,ddr,vr,hd,vl,hu: 12% 15% 26% 6% 7% 7% 8% 8% 11%
x264 [info]: i4 v,h,dc,ddl,ddr,vr,hd,vl,hu: 18% 13% 32% 5% 7% 6% 7% 5% 7%
x264 [info]: i8c dc,h,v,p: 67% 14% 9% 10%
x264 [info]: Weighted P-Frames: Y:1.6% UV:1.4%
x264 [info]: ref P L0: 67.6% 5.9% 17.1% 7.0% 2.4% 0.0%
x264 [info]: ref B L0: 83.6% 13.7% 2.6%
x264 [info]: ref B L1: 88.1% 11.9%
x264 [info]: kb/s:13421.25
x264 [total]: encoded 133174 frames, 4.38 fps, 13421.25 kb/s, duration 8:26:25.59
Format : Matroska
Format version : Version 4 / Version 2
File size : 10.5 GiB
Duration : 1h 32mn
Overall bit rate : 16.2 Mbps
Encoded date : UTC 2015-06-14 19:47:30
Writing application : mkvmerge v6.7.0 ('Back to the Ground') 32bit built on Jan 8 2014 15:03:17
Writing library : libebml v1.3.0 + libmatroska v1.4.1
Video
ID : 1
Format : AVC
Format/Info : Advanced Video Codec
Format profile : High@L4.1
Format settings, CABAC : Yes
Format settings, ReFrames : 4 frames
Codec ID : V_MPEG4/ISO/AVC
Duration : 1h 32mn
Bit rate : 13.1 Mbps
Width : 1 920 pixels
Height : 1 080 pixels
Display aspect ratio : 16:9
Frame rate mode : Constant
Frame rate : 23.976 fps
Color space : YUV
Chroma subsampling : 4:2:0
Bit depth : 8 bits
Scan type : Progressive
Bits/(Pixel*Frame) : 0.264
Stream size : 8.47 GiB (81%)
Title : The SpongeBob Movie: Sponge Out of Water (2015) [rutracker.org] 1080p
Writing library : x264 core 146 r2538kMod 121396c
Encoding settings : cabac=1 / ref=4 / deblock=1:-3:-2 / analyse=0x3:0x133 / me=umh / subme=11 / psy=1 / fade_compensate=0.00 / psy_rd=1.00:0.05 / mixed_ref=1 / me_range=32 / chroma_me=1 / trellis=2 / 8x8dct=1 / cqm=0 / deadzone=21,11 / fast_pskip=0 / chroma_qp_offset=-3 / threads=12 / lookahead_threads=2 / sliced_threads=0 / nr=0 / decimate=1 / interlaced=0 / bluray_compat=0 / constrained_intra=0 / fgo=0 / bframes=8 / b_pyramid=2 / b_adapt=2 / b_bias=0 / direct=3 / weightb=1 / open_gop=0 / weightp=2 / keyint=250 / keyint_min=23 / scenecut=40 / intra_refresh=0 / rc_lookahead=80 / rc=crf / mbtree=0 / crf=17.3000 / qcomp=0.60 / qpmin=0 / qpmax=69 / qpstep=4 / vbv_maxrate=50000 / vbv_bufsize=62500 / crf_max=0.0 / nal_hrd=none / filler=0 / ip_ratio=1.40 / pb_ratio=1.30 / aq=3:0.90
Language : English
Default : Yes
Forced : No
Audio #1
ID : 2
Format : AC-3
Format/Info : Audio Coding 3
Mode extension : CM (complete main)
Format settings, Endianness : Big
Codec ID : A_AC3
Duration : 1h 32mn
Bit rate mode : Constant
Bit rate : 640 Kbps
Channel(s) : 6 channels
Channel positions : Front: L C R, Side: L R, LFE
Sampling rate : 48.0 KHz
Bit depth : 16 bits
Compression mode : Lossy
Stream size : 424 MiB (4%)
Title : DUB [Blu-ray CEE]
Language : Russian
Default : Yes
Forced : No
Audio #2
ID : 3
Format : AC-3
Format/Info : Audio Coding 3
Mode extension : CM (complete main)
Format settings, Endianness : Big
Codec ID : A_AC3
Duration : 1h 32mn
Bit rate mode : Constant
Bit rate : 640 Kbps
Channel(s) : 6 channels
Channel positions : Front: L C R, Side: L R, LFE
Sampling rate : 48.0 KHz
Bit depth : 16 bits
Compression mode : Lossy
Stream size : 424 MiB (4%)
Title : DUB [Blu-ray CEE]
Language : Ukrainian
Default : No
Forced : No
Audio #3
ID : 4
Format : DTS
Format/Info : Digital Theater Systems
Mode : 16
Format settings, Endianness : Big
Codec ID : A_DTS
Duration : 1h 32mn
Bit rate mode : Constant
Bit rate : 1 509 Kbps
Channel(s) : 6 channels
Channel positions : Front: L C R, Side: L R, LFE
Sampling rate : 48.0 KHz
Bit depth : 24 bits
Compression mode : Lossy
Stream size : 999 MiB (9%)
Title : Original
Language : English
Default : No
Forced : No
Text #1
ID : 5
Format : UTF-8
Codec ID : S_TEXT/UTF8
Codec ID/Info : UTF-8 Plain Text
Title : Forced
Language : Russian
Default : Yes
Forced : No
Text #2
ID : 6
Format : UTF-8
Codec ID : S_TEXT/UTF8
Codec ID/Info : UTF-8 Plain Text
Title : FULL
Language : Russian
Default : No
Forced : No
Text #3
ID : 7
Format : UTF-8
Codec ID : S_TEXT/UTF8
Codec ID/Info : UTF-8 Plain Text
Title : FULL
Language : English
Default : No
Forced : No
Text #4
ID : 8
Format : UTF-8
Codec ID : S_TEXT/UTF8
Codec ID/Info : UTF-8 Plain Text
Title : SDH
Language : English
Default : No
Forced : No
Menu
00:00:00.000 : en:00:00:00.000
00:03:40.385 : en:00:03:40.385
00:06:22.173 : en:00:06:22.173
00:12:29.999 : en:00:12:29.999
00:18:21.599 : en:00:18:21.599
00:22:52.078 : en:00:22:52.078
00:30:14.686 : en:00:30:14.686
00:35:37.885 : en:00:35:37.885
00:39:50.971 : en:00:39:50.971
00:43:13.423 : en:00:43:13.423
00:50:54.509 : en:00:50:54.509
00:55:16.396 : en:00:55:16.396
01:00:03.099 : en:01:00:03.099
01:04:19.355 : en:01:04:19.355
01:10:16.587 : en:01:10:16.587
01:16:20.367 : en:01:16:20.367
01:20:29.490 : en:01:20:29.490
01:23:30.838 : en:01:23:30.838

Скриншоты




Показать сообщения:    

Текущее время: 22-Сен 10:52

Часовой пояс: UTC - 1


Вы не можете начинать темы
Вы не можете отвечать на сообщения
Вы не можете редактировать свои сообщения
Вы не можете удалять свои сообщения
Вы не можете голосовать в опросах
Вы не можете прикреплять файлы к сообщениям
Вы не можете скачивать файлы

!ВНИМАНИЕ!
Сайт не предоставляет электронные версии произведений, а занимается лишь коллекционированием и каталогизацией ссылок, присылаемых и публикуемых на форуме нашими читателями. Если вы являетесь правообладателем какого-либо представленного материала и не желаете, чтобы ссылка на него находилась в нашем каталоге, свяжитесь с нами, и мы незамедлительно удалим ее. Файлы для обмена на трекере предоставлены пользователями сайта, и администрация не несет ответственности за их содержание. Просьба не заливать файлы, защищенные авторскими правами, а также файлы нелегального содержания!