Важное объявление!
У Нас Все раздачи мультитрекерные, при нуле пиров в релизах, можете смело вставать на закачку!
 
Автор Сообщение

HUNTER

Стаж:
4 года 7 месяцев
Сообщений:
61508

Репутация: 101

[+] [-]
Вне форума [Профиль] [ЛС]

Губка Боб в 3D / The SpongeBob Movie: Sponge Out of Water«Всё квадратное станет явным»
Страна: США
Жанр: мультфильм, комедия, приключения, семейный
Продолжительность: 01:32:53
Год выпуска: 2015
Перевод: Профессиональный (дублированный) [iTunes]
Русские субтитры: есть
Режиссёр: Пол Тиббит / Paul Tibbitt
Роли озвучивали: Антонио Бандерас, Том Кенни, Эрик Бауза, Тим Конуэй, Эдди Дизен, Роб Полсен, Кевин Майкл Ричардсон, Эйприл Стюарт, Кри Саммер, Билли Уэст
Описание: Всемирный любимчик со дна океана Губка Боб Квадратные Штаны должен спасти свой глубоководный мир, но для этого ему и его друзьям придется выбраться на сушу и оказаться в нашем.

Качество: WEB-DLRip (Исх. WEB-DL 720p)
Формат: AVI
Видео: 720x400 (1.80:1), 23.976 fps, XviD build 73 ~2384 kbps avg, 0.35 bit/pixel
Аудио: 48 kHz, AC3 Dolby Digital, 3/2 (L,C,R,l,r) + LFE ch, ~384.00 kbps avg (Русский iTunes)
Аудио 2: 48 kHz, AC3 Dolby Digital, 2/0 (L,R) ch, ~384.00 kbps avg (Английский)
Субтитры 1: Русские форсированные
Субтитры 2: Русские полные
Формат субтитров: softsub (SRT)

Подробные технические данные

ОбщееПолное имя : K:Губка Боб в 3D. 2015. WEB-DLRip 2.05 (AleksSin)Губка Боб в 3D. 2015. WEB-DLRip 2.05 (AleksSin).aviФормат : AVIФормат/Информация : Audio Video InterleaveПрофиль формата : OpenDMLРазмер файла : 2,06 ГбайтПродолжительность : 1 ч. 32 м.Общий поток : 3168 Кбит/секПрограмма кодирования : VirtualDubModRus 1.5.10.2 (build 2542/release)Библиотека кодирования : VirtualDubMod build 2542/release
ВидеоИдентификатор : 0Формат : MPEG-4 VisualПрофиль формата : Advanced Simple@L5Параметр BVOP формата : 1Параметр QPel формата : НетПараметр GMC формата : Без точки переходаПараметр матрицы формата : ВыборочнаяИдентификатор кодека : XVIDИдентификатор кодека/Подсказка : XviDПродолжительность : 1 ч. 32 м.Битрейт : 2384 Кбит/секШирина : 720 пикс.Высота : 400 пикс.Соотношение сторон : 16:9Частота кадров : 23,976 кадр/секЦветовое пространство : YUVПодвыборка цветности : 4:2:0Битовая глубина : 8 битТип развёртки : ПрогрессивнаяМетод сжатия : С потерямиБит/(Пиксели*Кадры) : 0.345Размер потока : 1,55 Гбайт (75%)Библиотека кодирования : XviD 73
Аудио #1Идентификатор : 1Формат : AC-3Формат/Информация : Audio Coding 3Расширение режима : CM (complete main)Идентификатор кодека : 2000Продолжительность : 1 ч. 32 м.Вид битрейта : ПостоянныйБитрейт : 384 Кбит/секКаналы : 6 каналовРасположение каналов : Front: L C R, Side: L R, LFEЧастота : 48,0 КГцБитовая глубина : 16 битМетод сжатия : С потерямиРазмер потока : 254 Мбайт (12%)Выравнивание : Разделение по промежуткамПродолжительность промежутка : 42 мс. (1,00 видеокадр)Время предзагрузки промежутка : 500 ms
Аудио #2Идентификатор : 2Формат : AC-3Формат/Информация : Audio Coding 3Расширение режима : CM (complete main)Идентификатор кодека : 2000Продолжительность : 1 ч. 32 м.Вид битрейта : ПостоянныйБитрейт : 384 Кбит/секКаналы : 2 каналаРасположение каналов : Front: L RЧастота : 48,0 КГцБитовая глубина : 16 битМетод сжатия : С потерямиРазмер потока : 254 Мбайт (12%)Выравнивание : Разделение по промежуткамПродолжительность промежутка : 42 мс. (1,00 видеокадр)Время предзагрузки промежутка : 500 ms

Скриншоты


_________________
Показать сообщения:    

Текущее время: Сегодня 06:24

Часовой пояс: GMT



Вы не можете начинать темы
Вы не можете отвечать на сообщения
Вы не можете редактировать свои сообщения
Вы не можете удалять свои сообщения
Вы не можете голосовать в опросах
Вы не можете прикреплять файлы к сообщениям
Вы не можете скачивать файлы
Наши партнеры: интернет магазин Ивановского трикотажа textilla.ru