Важное объявление!
У Нас Все раздачи мультитрекерные, при нуле пиров в релизах, можете смело вставать на закачку!
 
Автор Сообщение

HUNTER

Стаж:
4 года 7 месяцев
Сообщений:
61582

Репутация: 101

[+] [-]
Вне форума [Профиль] [ЛС]

Губка Боб в 3D
The SpongeBob Movie: Sponge Out of Water
-
Страна: США
Жанр: комедия, приключения, семейный
Продолжительность: 01:32:36
Год выпуска: 2015
Перевод: Профессиональный (дублированный) iTunes
Русские субтитры: есть
Режиссёр: Пол Тиббит / Paul Tibbitt
В ролях и озвучивали:
Антонио Бандерас | Antonio Banderas
Том Кенни, Эрик Бауза, Тим Конуэй, Эдди Дизен, Роб Полсен, Кевин Майкл Ричардсон, Эйприл Стюарт, Кри Саммер, Билли Уэст-ОписаниеВсемирный любимчик со дна океана Губка Боб Квадратные Штаны должен спасти свой глубоководный мир, но для этого ему и его друзьям придется выбраться на сушу и оказаться в нашем.-Релиз:

Сэмпл

IMDb: 6.40 (13 944)
Качество: BDRip-AVC THE_SPONGEBOB_MOVIE_SPONGE_OUT_OF_WATER_REMUX_HDCLUB
Формат: MKV
Видео: AVC 3063 Kbps 1152 x 648 (1.778) 23.976 fps
Аудио: AC-3 384 Kbps 6 channels, 48.0 KHz RUS DUB iTunes
Аудио 2: AC-3 448 Kbps 6 channels, 48.0 KHz Eng
Субтитры: Rus (Forced, Full), Eng (Full, SDH)

MI | Log

x264 [info]: frame I:1300 Avg QP:14.03 size:150581
x264 [info]: frame P:35546 Avg QP:16.02 size: 30334
x264 [info]: frame B:96328 Avg QP:18.16 size: 9415
x264 [info]: consecutive B-frames: 3.8% 5.6% 22.0% 27.5% 15.7% 14.7% 3.3% 2.1% 1.8% 0.9% 0.8% 1.1% 0.6%
x264 [info]: mb I I16..4: 12.6% 55.9% 31.5%
x264 [info]: mb P I16..4: 0.7% 9.0% 1.9% P16..4: 23.5% 21.8% 11.9% 3.2% 0.7% skip:27.4%
x264 [info]: mb B I16..4: 0.1% 1.2% 0.3% B16..8: 24.0% 14.2% 3.3% direct: 3.5% skip:53.5% L0:43.2% L1:45.6% BI:11.3%
x264 [info]: 8x8 transform intra:73.3% inter:48.0%
x264 [info]: direct mvs spatial:99.5% temporal:0.5%
x264 [info]: coded y,uvDC,uvAC intra: 89.4% 92.4% 81.9% inter: 14.7% 15.6% 8.3%
x264 [info]: i16 v,h,dc,p: 26% 12% 14% 47%
x264 [info]: i8 v,h,dc,ddl,ddr,vr,hd,vl,hu: 10% 11% 9% 9% 12% 11% 13% 11% 15%
x264 [info]: i4 v,h,dc,ddl,ddr,vr,hd,vl,hu: 12% 11% 7% 9% 13% 11% 13% 10% 14%
x264 [info]: i8c dc,h,v,p: 45% 24% 15% 16%
x264 [info]: Weighted P-Frames: Y:2.4% UV:1.6%
x264 [info]: ref P L0: 51.7% 7.1% 15.7% 6.3% 5.2% 4.4% 3.3% 1.7% 1.5% 1.3% 1.3% 0.5% 0.0%
x264 [info]: ref B L0: 66.0% 12.8% 6.9% 4.0% 3.0% 3.4% 1.8% 1.1% 0.7% 0.3%
x264 [info]: ref B L1: 90.6% 9.4%
x264 [info]: kb/s:3141.17
x264 [total]: encoded 133174 frames, 8.54 fps, 3141.17 kb/s, duration 4:19:50.80
Format : Matroska
Format version : Version 4 / Version 2
File size : 2.57 GiB
Duration : 1h 32mn
Overall bit rate : 3 974 Kbps
Encoded date : UTC 2015-05-22 21:26:21
Writing application : mkvmerge v6.7.0 ('Back to the Ground') 32bit built on Jan 8 2014 15:03:17
Writing library : libebml v1.3.0 + libmatroska v1.4.1
Video
ID : 1
Format : AVC
Format/Info : Advanced Video Codec
Format profile : High@L4.1
Format settings, CABAC : Yes
Format settings, ReFrames : 11 frames
Codec ID : V_MPEG4/ISO/AVC
Duration : 1h 32mn
Bit rate : 3 063 Kbps
Width : 1 152 pixels
Height : 648 pixels
Display aspect ratio : 16:9
Frame rate mode : Constant
Frame rate : 23.976 fps
Color space : YUV
Chroma subsampling : 4:2:0
Bit depth : 8 bits
Scan type : Progressive
Bits/(Pixel*Frame) : 0.171
Stream size : 1.98 GiB (77%)
Title : The SpongeBob Movie: Sponge Out of Water (2015) [rutracker.org]
Writing library : x264 core 146 r2538kMod 121396c
Encoding settings : cabac=1 / ref=11 / deblock=1:-2:-1 / analyse=0x3:0x133 / me=umh / subme=11 / psy=1 / fade_compensate=0.00 / psy_rd=1.00:0.05 / mixed_ref=1 / me_range=32 / chroma_me=1 / trellis=2 / 8x8dct=1 / cqm=0 / deadzone=21,11 / fast_pskip=0 / chroma_qp_offset=-3 / threads=12 / lookahead_threads=3 / sliced_threads=0 / nr=0 / decimate=1 / interlaced=0 / bluray_compat=0 / constrained_intra=0 / fgo=0 / bframes=12 / b_pyramid=2 / b_adapt=2 / b_bias=0 / direct=3 / weightb=1 / open_gop=0 / weightp=2 / keyint=250 / keyint_min=23 / scenecut=40 / intra_refresh=0 / rc_lookahead=80 / rc=crf / mbtree=0 / crf=17.3000 / qcomp=0.60 / qpmin=0 / qpmax=69 / qpstep=4 / vbv_maxrate=50000 / vbv_bufsize=62500 / crf_max=0.0 / nal_hrd=none / filler=0 / ip_ratio=1.40 / pb_ratio=1.30 / aq=3:0.90
Language : English
Default : Yes
Forced : No
Audio #1
ID : 2
Format : AC-3
Format/Info : Audio Coding 3
Mode extension : CM (complete main)
Format settings, Endianness : Big
Codec ID : A_AC3
Duration : 1h 32mn
Bit rate mode : Constant
Bit rate : 384 Kbps
Channel(s) : 6 channels
Channel positions : Front: L C R, Side: L R, LFE
Sampling rate : 48.0 KHz
Bit depth : 16 bits
Compression mode : Lossy
Stream size : 254 MiB (10%)
Title : DUB iTunes
Language : Russian
Default : Yes
Forced : No
Audio #2
ID : 3
Format : AC-3
Format/Info : Audio Coding 3
Mode extension : CM (complete main)
Format settings, Endianness : Big
Codec ID : A_AC3
Duration : 1h 32mn
Bit rate mode : Constant
Bit rate : 448 Kbps
Channel(s) : 6 channels
Channel positions : Front: L C R, Side: L R, LFE
Sampling rate : 48.0 KHz
Bit depth : 16 bits
Compression mode : Lossy
Stream size : 297 MiB (11%)
Title : Original
Language : English
Default : No
Forced : No
Text #1
ID : 4
Format : UTF-8
Codec ID : S_TEXT/UTF8
Codec ID/Info : UTF-8 Plain Text
Title : Forced
Language : Russian
Default : Yes
Forced : No
Text #2
ID : 5
Format : UTF-8
Codec ID : S_TEXT/UTF8
Codec ID/Info : UTF-8 Plain Text
Title : FULL
Language : Russian
Default : No
Forced : No
Text #3
ID : 6
Format : UTF-8
Codec ID : S_TEXT/UTF8
Codec ID/Info : UTF-8 Plain Text
Title : FULL
Language : English
Default : No
Forced : No
Text #4
ID : 7
Format : UTF-8
Codec ID : S_TEXT/UTF8
Codec ID/Info : UTF-8 Plain Text
Title : SDH
Language : English
Default : No
Forced : No
Menu
00:00:00.000 : en:00:00:00.000
00:03:40.385 : en:00:03:40.385
00:06:22.173 : en:00:06:22.173
00:12:29.999 : en:00:12:29.999
00:18:21.599 : en:00:18:21.599
00:22:52.078 : en:00:22:52.078
00:30:14.686 : en:00:30:14.686
00:35:37.885 : en:00:35:37.885
00:39:50.971 : en:00:39:50.971
00:43:13.423 : en:00:43:13.423
00:50:54.509 : en:00:50:54.509
00:55:16.396 : en:00:55:16.396
01:00:03.099 : en:01:00:03.099
01:04:19.355 : en:01:04:19.355
01:10:16.587 : en:01:10:16.587
01:16:20.367 : en:01:16:20.367
01:20:29.490 : en:01:20:29.490
01:23:30.838 : en:01:23:30.838
Log

Скриншоты





_________________
Показать сообщения:    

Текущее время: Сегодня 22:18

Часовой пояс: GMT



Вы не можете начинать темы
Вы не можете отвечать на сообщения
Вы не можете редактировать свои сообщения
Вы не можете удалять свои сообщения
Вы не можете голосовать в опросах
Вы не можете прикреплять файлы к сообщениям
Вы не можете скачивать файлы
Наши партнеры: интернет магазин Ивановского трикотажа textilla.ru