Важное объявление!
У Нас Все раздачи мультитрекерные, при нуле пиров в релизах, можете смело вставать на закачку!
Статистика раздачи
Размер:     |    Зарегистрирован:     |    Скачан:     |   
Нет
 
     
 
 
Автор Сообщение

HUNTER

Стаж:
5 лет
Сообщений:
68018

Репутация: 101

[+] [-]
Вне форума [Профиль] [ЛС]

Группа / The Group
Страна: США
Студия: Famartists Productions S.A.
Жанр: Драма
Год выпуска: 1966
Продолжительность: 02:25:49
Перевод: Профессиональный (двухголосый закадровый) НТВ+
Cубтитры: нет
Оригинальная аудиодорожка: английский
Режиссер: Сидни Люмет / Sidney Lumet
В ролях: Кэндис Берджен, Джоан Хакетт, Элизабет Хартман, Ширли Найт, Джоанна Петтет, Мэри-Робин Редд, Джессика Уолтер, Кэтлин Виддойс, Джеймс Бродерик, Джеймс Конгдон, Ларри Хагман, Хэл Холбрук, Ричард Маллигэн, Роберт Эмхардт, Кэрри Нуи, Филиппа Беванс, Лета Бонанж, Сара Бартон, Флора Кэмпбелл, Лиора Дана, Джордж Гейнес, Расселл Харди, Дорин Лэнг, Чет Лондон, Барух Люмет, Джон О'Лири, Хильди Паркс, Лидия Прошника, Полли Роулс, Трумэн Смит, Лоретта Уайт, Артур Андерсон, Питер Бойл, Эдвард Холмс
Описание: 1933 год. Восемь молодых женщин, друзья и члены группы высшего сословия в частной школе для девушек, готовятся к выпуску и началу собственной жизни. Фильм рассказывает о том, что с ними произошло в годы между окончанием школы и началом Второй Мировой. Они влюбляются и выходят замуж, строят свою карьеру, ищут смысл жизни...

IMDB
Тип релиза: HDTV 1080i
Контейнер: MKV
Видео: AVC 1920x1080 (16:9) 25.0fps Bit rate 5270Kbps
Аудио 1: AC3 48.0KHz 2ch 192 Kbps rus
Аудио 2: AC3 48.0KHz 2ch 192 Kbps eng

MediaInfo

Общее
Уникальный идентификатор : 174299043588164832662336535154965345829 (0x8320C654DDA90E9A977A109DE6BBF625)
Полное имя : E:\torrent\The.Group.1966.HDTV.1080i.mkv
Формат : Matroska
Версия формата : Version 4 / Version 2
Размер файла : 5,88 Гбайт
Продолжительность : 2 ч. 25 м.
Общий поток : 5768 Кбит/сек
Дата кодирования : UTC 2014-01-25 02:34:38
Программа кодирования : mkvmerge v6.7.0 ('Back to the Ground') 32bit built on Jan 8 2014 15:03:17
Библиотека кодирования : libebml v1.3.0 + libmatroska v1.4.1
Видео
Идентификатор : 1
Формат : AVC
Формат/Информация : Advanced Video Codec
Профиль формата : High@L4.0
Параметр CABAC формата : Да
Параметр ReFrames формата : 3 кадра
Параметр GOP формата : M=4, N=32
Идентификатор кодека : V_MPEG4/ISO/AVC
Продолжительность : 2 ч. 25 м.
Битрейт : 5270 Кбит/сек
Ширина : 1920 пикселей
Высота : 1080 пикселей
Соотношение сторон : 16:9
Режим частоты кадров : Постоянный
Частота кадров : 25,000 кадров/сек
Стандарт вещания : Component
Цветовое пространство : YUV
Субдискретизация насыщенности : 4:2:0
Битовая глубина : 8 бит
Тип развёртки : Чересстрочная
Порядок развёртки : Верхнее поле первое
Бит/(Пиксели*Кадры) : 0.102
Размер потока : 5,37 Гбайт (91%)
Заголовок : The.Group.1966.HDTV.1080i
Default : Да
Forced : Нет
Основные цвета : BT.709
Характеристики трансфера : BT.709
Коэффициенты матрицы : BT.709
Аудио #1
Идентификатор : 2
Формат : MPEG Audio
Версия формата : Version 1
Профиль формата : Layer 2
Идентификатор кодека : A_MPEG/L2
Идентификатор кодека/Подсказка : MP2
Продолжительность : 2 ч. 25 м.
Вид битрейта : Постоянный
Битрейт : 192 Кбит/сек
Каналы : 2 канала
Частота : 48,0 КГц
Метод сжатия : С потерями
Размер потока : 200 Мбайт (3%)
Заголовок : The.Group.1966_MP2_2ch_DVO_NTV+
Язык : Russian
Default : Да
Forced : Нет
Аудио #2
Идентификатор : 3
Формат : AC-3
Формат/Информация : Audio Coding 3
Расширение режима : CM (complete main)
Параметр Endianness формата : Big
Идентификатор кодека : A_AC3
Продолжительность : 2 ч. 25 м.
Вид битрейта : Постоянный
Битрейт : 192 Кбит/сек
Каналы : 2 канала
Расположение каналов : Front: L R
Частота : 48,0 КГц
Битовая глубина : 16 бит
Метод сжатия : С потерями
Размер потока : 200 Мбайт (3%)
Заголовок : The.Group.1966_AC3_2ch_original eng
Язык : English
Default : Нет
Forced : Нет

Скриншот с названием фильма

Скриншоты

Скрины:


_________________
Показать сообщения:    

Текущее время: Сегодня 10:37

Часовой пояс: GMT



Вы не можете начинать темы
Вы не можете отвечать на сообщения
Вы не можете редактировать свои сообщения
Вы не можете удалять свои сообщения
Вы не можете голосовать в опросах
Вы не можете прикреплять файлы к сообщениям
Вы не можете скачивать файлы