Ивановский Торрент трекер
Яндекс.Погода
 

[Цитировать]
HUNTER

Грузовик / Грузовик-призрак / Road train / Road kill / Gruzovik
Страна: Австралия
Жанр: роуд-муви, триллер, ужасы
Год выпуска: 2010
Продолжительность: 01:30:11
Перевод: Профессиональный (многоголосый закадровый) ТВ 3
Cубтитры: нет
Оригинальная аудиодорожка: английский
Режиссер: Дин Френсис / Dean Francis
В ролях: Боб Морли, Софи Лоу, Джорджина Хэйг, Завьер Сэмюэл, Дэвид Арге, Дин Френсис, Доминик МакДональд
IMDB
Кинопоиск
Описание: Огромный грузовик таранит машину, в которой ехали четверо друзей. Все выжили, но заинтересовались, что за придурок так неосторожно управляет автопоездом. Оказалось, что за рулем никого не было. Ситуация вынуждает героев сесть за руль и продолжить путь на чужом грузовике. Они ни за что не сели бы в него, если бы знали что…
Доп. информация: Рип найден в сети: Road train.(2010).[Ukr].BDRip 720p.[Hurtom] uniongang.tv
Украинская дорожка заменена на русскую, все благодарности за русскую дорожку сюда
Украинскую дорожку [українська 2+2, переклад: двоголосий закадровий, кодек: AC3 5.1, бітрейт: 384 кб/с] можно взять
здесь
Сэмпл: http://multi-up.com/1028288
Тип релиза: BDRip 720p
Контейнер: MKV
Видео: BDRip, H.264, 16:9, 24.000 fps, 1280x720, 6 286 кб/с
Аудио: Русский, AC3 5.1, 48000Hz, 6ch, 384 Kbps
Аудио 2: Английский, AC3 5.1, 48000Hz, 6ch, 640 Kbps

MediaInfo

General
Unique ID : 254029710478562502368954325241557347794 (0xBF1C57B5C7459A8DA84823178EB6EDD2)
Complete name : Road train.(2010).BDRip 720p.mkv
Format : Matroska
Format version : Version 2
File size : 4.60 GiB
Duration : 1h 30mn
Overall bit rate : 7 307 Kbps
Movie name : Road train / Road kill (by Dean Francis) 2010
Encoded date : UTC 2015-01-23 07:21:36
Writing application : mkvmerge v6.6.0 ('The Edge Of The In Between') built on Dec 1 2013 17:55:00
Writing library : libebml v1.3.0 + libmatroska v1.4.1
Attachements : poster.jpg
Video
ID : 1
Format : AVC
Format/Info : Advanced Video Codec
Format profile : High@L4.1
Format settings, CABAC : Yes
Format settings, ReFrames : 5 frames
Codec ID : V_MPEG4/ISO/AVC
Duration : 1h 30mn
Bit rate : 6 286 Kbps
Width : 1 280 pixels
Height : 720 pixels
Display aspect ratio : 16:9
Frame rate mode : Constant
Frame rate : 24.000 fps
Color space : YUV
Chroma subsampling : 4:2:0
Bit depth : 8 bits
Scan type : Progressive
Bits/(Pixel*Frame) : 0.284
Stream size : 3.87 GiB (84%)
Title : Road train / Road kill (by Dean Francis) 2010
Writing library : x264 core 114 r1913 5fd3dce
Encoding settings : cabac=1 / ref=5 / deblock=1:0:0 / analyse=0x3:0x133 / me=umh / subme=8 / psy=1 / psy_rd=1.00:0.00 / mixed_ref=1 / me_range=16 / chroma_me=1 / trellis=1 / 8x8dct=1 / cqm=0 / deadzone=21,11 / fast_pskip=0 / chroma_qp_offset=-2 / threads=12 / sliced_threads=0 / nr=0 / decimate=1 / interlaced=0 / constrained_intra=0 / bframes=3 / b_pyramid=2 / b_adapt=1 / b_bias=0 / direct=1 / weightb=1 / open_gop=0 / weightp=2 / keyint=250 / keyint_min=24 / scenecut=40 / intra_refresh=0 / rc_lookahead=40 / rc=2pass / mbtree=1 / bitrate=6286 / ratetol=1.0 / qcomp=0.60 / qpmin=0 / qpmax=69 / qpstep=4 / cplxblur=20.0 / qblur=0.5 / ip_ratio=1.40 / aq=1:1.00
Language : English
Default : Yes
Forced : No
Audio #1
ID : 2
Format : AC-3
Format/Info : Audio Coding 3
Mode extension : CM (complete main)
Format settings, Endianness : Big
Codec ID : A_AC3
Duration : 1h 30mn
Bit rate mode : Constant
Bit rate : 384 Kbps
Channel(s) : 6 channels
Channel positions : Front: L C R, Side: L R, LFE
Sampling rate : 48.0 KHz
Bit depth : 16 bits
Compression mode : Lossy
Delay relative to video : 10s 0ms
Stream size : 248 MiB (5%)
Title : MVO (ТВ 3)
Language : Russian
Default : Yes
Forced : No
Audio #2
ID : 3
Format : AC-3
Format/Info : Audio Coding 3
Mode extension : CM (complete main)
Format settings, Endianness : Big
Codec ID : A_AC3
Duration : 1h 30mn
Bit rate mode : Constant
Bit rate : 640 Kbps
Channel(s) : 6 channels
Channel positions : Front: L C R, Side: L R, LFE
Sampling rate : 48.0 KHz
Bit depth : 16 bits
Compression mode : Lossy
Stream size : 413 MiB (9%)
Title : Original
Language : English
Default : No
Forced : No

Скриншоты


0 человек читают эту тему: 0 пользователей, 0 скрытых пользователей, 0 гостей

Показать сообщения:    

Текущее время: 23-Авг 13:01

Часовой пояс: UTC - 1


Вы не можете начинать темы
Вы не можете отвечать на сообщения
Вы не можете редактировать свои сообщения
Вы не можете удалять свои сообщения
Вы не можете голосовать в опросах
Вы не можете прикреплять файлы к сообщениям
Вы не можете скачивать файлы

!ВНИМАНИЕ!
Сайт не предоставляет электронные версии произведений, а занимается лишь коллекционированием и каталогизацией ссылок, присылаемых и публикуемых на форуме нашими читателями. Если вы являетесь правообладателем какого-либо представленного материала и не желаете, чтобы ссылка на него находилась в нашем каталоге, свяжитесь с нами, и мы незамедлительно удалим ее. Файлы для обмена на трекере предоставлены пользователями сайта, и администрация не несет ответственности за их содержание. Просьба не заливать файлы, защищенные авторскими правами, а также файлы нелегального содержания!