Ивановский Торрент трекер
Яндекс.Погода
 

[Цитировать]
HUNTER

Грозное время- Год выпуска: 2012
Страна: Россия
Жанр: драма, история
Продолжительность: 00:44:06
Количество серий в сезоне: 1-4 серии из 4
Перевод: Оригинал-Режиссер: Александр Даруга, Александр Шапошников
Сценарий: Рустам Ибрагимбеков
Продюсер: Мурад Ибрагимбеков, Александр Швыдкой, Александр Нагрудный
Оператор: Иван Гудков
Композитор: Андрей Комаров-В ролях: Виктория Райкова (Елена Морозова), Олег Долин (Иван Грозный), Анна Соболева (Варвара), Анна Халилулина , Алексей Панин (Борис Годунов), Михаил Левченко (Малюта Скуратов), Юрий Чернов (Морозов), Юрий Ваксман , Дмитрий Лабуш (Федор Басманов), Александр Туманов (блаженный)
-Описание: XVI век Грозное время правления Иоанна IV Васильевича по прозвищу «Грозный»! Со всех сторон Великая Русь осаждена врагами. Москва сожжена Девлет-Гиреем, с запада прижимают поляки…
В это время сын Малюты Скуратова, Максим, возвращается с войны. Он мечтает, жениться на своей возлюбленной, с которой был давно помолвлен, но многое изменилось с тех пор…
-Рейтинг:-Качество: DVDRip
Формат: AVI
Видео кодек: XviD
Аудио кодеk: AC3
Видео: 720x384 (1.88:1), 25 fps, XviD MPEG-4 ~1524 kbps avg, 0.22 bit/pixel
Аудио: Аудио #1: 48 kHz, AC3 Dolby Digital, 3/2 (L,C,R,l,r) + LFE ch, ~384 kbps
-

МедиаИнфо

Код: copyText_writeLink('this.parentNode.parentNode.nextSibling.nextSibling'); General
Complete name : Groznoe.vremya.1.serija.iz.4.2012.DVDRip.avi
Format : AVI
Format/Info : Audio Video Interleave
File size : 600 MiB
Duration : 44mn 6s
Overall bit rate : 1 903 Kbps
Writing application : VirtualDubMod 1.5.4.1 (build 2178/release)
Writing library : VirtualDubMod build 2178/release
Video
ID : 0
Format : MPEG-4 Visual
Format profile : Advanced Simple@L5
Format settings, BVOP : No
Format settings, QPel : No
Format settings, GMC : No warppoints
Format settings, Matrix : Custom
Codec ID : XVID
Codec ID/Hint : XviD
Duration : 44mn 6s
Bit rate : 1 512 Kbps
Width : 720 pixels
Height : 384 pixels
Display aspect ratio : 1.875
Frame rate : 25.000 fps
Color space : YUV
Chroma subsampling : 4:2:0
Bit depth : 8 bits
Scan type : Progressive
Bits/(Pixel*Frame) : 0.219
Stream size : 477 MiB (79%)
Writing library : XviD 1.2.1 (UTC 2008-12-04)
Audio
ID : 1
Format : AC-3
Format/Info : Audio Coding 3
Mode extension : CM (complete main)
Codec ID : 2000
Duration : 44mn 6s
Bit rate mode : Constant
Bit rate : 384 Kbps
Channel(s) : 6 channels
Channel positions : Front: L C R, Side: L R, LFE
Sampling rate : 48.0 KHz
Bit depth : 16 bits
Stream size : 121 MiB (20%)
Alignment : Aligned on interleaves
Interleave, duration : 96 ms (2.40 video frames)
Interleave, preload duration : 96 ms
-
- -


Показать сообщения:    

Текущее время: 12-Дек 14:20

Часовой пояс: UTC ± 0


Вы не можете начинать темы
Вы не можете отвечать на сообщения
Вы не можете редактировать свои сообщения
Вы не можете удалять свои сообщения
Вы не можете голосовать в опросах
Вы не можете прикреплять файлы к сообщениям
Вы не можете скачивать файлы

!ВНИМАНИЕ!
Сайт не предоставляет электронные версии произведений, а занимается лишь коллекционированием и каталогизацией ссылок, присылаемых и публикуемых на форуме нашими читателями. Если вы являетесь правообладателем какого-либо представленного материала и не желаете, чтобы ссылка на него находилась в нашем каталоге, свяжитесь с нами, и мы незамедлительно удалим ее. Файлы для обмена на трекере предоставлены пользователями сайта, и администрация не несет ответственности за их содержание. Просьба не заливать файлы, защищенные авторскими правами, а также файлы нелегального содержания!