Важное объявление!
У Нас Все раздачи мультитрекерные, при нуле пиров в релизах, можете смело вставать на закачку!
 
Автор Сообщение

димитри37

Стаж:
4 года 1 месяц
Сообщений:
1236

Репутация: 127

[+] [-]
Вне форума [Профиль] [ЛС]

Гринго / El Gringo
Год выпуска: 2012
Страна: США
Жанр: боевик, криминал, драма
Продолжительность: 01:38:46.165
Перевод 1: Профессиональный (двухголосый закадровый) НТВ+
Перевод 2: Одноголосый закадровый Вадим Юсупов
Оригинальная аудиодорожка: Английская
Субтитры: Английские
Студия: After Dark Films, Autonomous Films, Signature Pictures
Режиссёр: Эдуардо Родригез / Eduardo Rodriguez
В ролях: Скотт Эдкинс, Кристиан Слэйтер, Ивет Йэтс, Израэль Ислас, Erando Gonzбlez, София Сисньега, Валентин Ганев, Даррен Шахлави, Мэтт Маллинз, Захари Бахаров и др.
Описание: Сюжет фильма вращается вокруг американца, который пересекает мексиканскую границу с пулевым ранением руки и 2,3 млн. наличных с целью отправиться в Акапулько и отдохнуть на пляже. Но вскоре он понимает, что это легче сказать, чем сделать.

Качество: BDRemux 1080p
Контейнер: MKV
Видео кодек: MPEG-4 AVC Video
Аудио кодек: DTS-HD Master Audio / Dolby Digital Audio
Видео: MPEG-4 AVC Video / 17965 kbps / 1920x1080p / 23,976 fps / 16:9 / High Profile 4.1
Аудио 1: Русский / Dolby Digital Audio / 5.1 / 48 kHz / 384 kbps / 16-bit / DVO НТВ+
Аудио 2: Русский / Dolby Digital Audio / 2.0 / 48 kHz / 192 kbps / 16-bit / VO Вадим Юсупов
Аудио 3: English / DTS-HD Master Audio / 5.1 / 48 kHz / 4127 kbps / 24-bit (DTS Core: 5.1 / 48 kHz / 1509 kbps / 24-bit) / Оригинал
Навигация по главам: да

Скриншот с названием фильма

MediaInfo

C:\Rutracker.org\Гринго (El Gringo) 2012, США, боевик, криминал, драма, Uncut BDRemux 1080p GORESEWAGE.mkv
General
Unique ID : 198303347637928573614778983142653364457 (0x952FD5E53759C04E897BE080EDD708E9)
Complete name : C:\Rutracker.org\Гринго (El Gringo) 2012, США, боевик, криминал, драма, Uncut BDRemux 1080p GORESEWAGE.mkv
Format : Matroska
Format version : Version 4 / Version 2
File size : 15.6 GiB
Duration : 1h 38mn
Overall bit rate mode : Variable
Overall bit rate : 22.7 Mbps
Movie name : GORESEWAGE
Encoded date : UTC 2013-05-15 20:55:58
Writing application : mkvmerge v6.1.0 ('Old Devil') built on Mar 31 2013 15:21:18
Writing library : libebml v1.3.0 + libmatroska v1.4.0
Video #1
ID : 1
Format : AVC
Format/Info : Advanced Video Codec
Format profile : High@L4.1
Format settings, CABAC : Yes
Format settings, ReFrames : 4 frames
Codec ID : V_MPEG4/ISO/AVC
Duration : 1h 38mn
Bit rate mode : Variable
Bit rate : 20.1 Mbps
Maximum bit rate : 33.0 Mbps
Width : 1 920 pixels
Height : 1 080 pixels
Display aspect ratio : 16:9
Frame rate mode : Constant
Frame rate : 23.976 fps
Color space : YUV
Chroma subsampling : 4:2:0
Bit depth : 8 bits
Scan type : Progressive
Bits/(Pixel*Frame) : 0.404
Stream size : 13.8 GiB (89%)
Title : GORESEWAGE
Language : English
Default : Yes
Forced : No
Color primaries : BT.709
Transfer characteristics : BT.709
Matrix coefficients : BT.709
Audio #2
ID : 2
Format : AC-3
Format/Info : Audio Coding 3
Mode extension : CM (complete main)
Format settings, Endianness : Big
Codec ID : A_AC3
Duration : 1h 38mn
Bit rate mode : Constant
Bit rate : 384 Kbps
Channel(s) : 6 channels
Channel positions : Front: L C R, Side: L R, LFE
Sampling rate : 48.0 KHz
Bit depth : 16 bits
Compression mode : Lossy
Stream size : 271 MiB (2%)
Title : Профессиональный (двухголосый закадровый) НТВ+
Language : Russian
Default : Yes
Forced : No
Audio #3
ID : 3
Format : AC-3
Format/Info : Audio Coding 3
Mode extension : CM (complete main)
Format settings, Endianness : Big
Codec ID : A_AC3
Duration : 1h 38mn
Bit rate mode : Constant
Bit rate : 192 Kbps
Channel(s) : 2 channels
Channel positions : Front: L R
Sampling rate : 48.0 KHz
Bit depth : 16 bits
Compression mode : Lossy
Stream size : 136 MiB (1%)
Title : Одноголосый закадровый Вадим Юсупов
Language : Russian
Default : No
Forced : No
Audio #4
ID : 4
Format : DTS
Format/Info : Digital Theater Systems
Format profile : MA / Core
Codec ID : A_DTS
Duration : 1h 38mn
Bit rate mode : Variable
Bit rate : 1 576 Kbps / 1 510 Kbps
Channel(s) : 6 channels
Channel positions : Front: L C R, Side: L R, LFE
Sampling rate : 48.0 KHz
Bit depth : 24 bits
Compression mode : Lossless / Lossy
Title : Оригинал
Language : English
Default : No
Forced : No
Text #5
ID : 5
Format : UTF-8
Codec ID : S_TEXT/UTF8
Codec ID/Info : UTF-8 Plain Text
Title : Full
Language : English
Default : No
Forced : No
Menu
00:00:00.000 : en:00:00:00.000
00:09:36.910 : en:00:09:36.910
00:17:57.076 : en:00:17:57.076
00:22:32.309 : en:00:22:32.309
00:33:04.274 : en:00:33:04.274
00:41:28.319 : en:00:41:28.319
00:48:31.450 : en:00:48:31.450
00:55:57.354 : en:00:55:57.354
01:03:43.028 : en:01:03:43.028
01:13:29.864 : en:01:13:29.864
01:23:20.704 : en:01:23:20.704
01:33:14.422 : en:01:33:14.422

Полноразмерные постеры

-
Показать сообщения:    

Текущее время: Сегодня 13:01

Часовой пояс: GMT



Вы не можете начинать темы
Вы не можете отвечать на сообщения
Вы не можете редактировать свои сообщения
Вы не можете удалять свои сообщения
Вы не можете голосовать в опросах
Вы не можете прикреплять файлы к сообщениям
Вы не можете скачивать файлы