Ивановский Торрент трекер
Яндекс.Погода
 

[Цитировать]
HUNTER

Грань будущегоEdge of Tomorrow«Живи. Умри. И снова»- Год выпуска: 2014
Страна: США, Австралия
Жанр: фантастика, боевик
Продолжительность: 01:53:16-Перевод: Профессиональный (полное дублирование) [звук с TS]
Субтитры: Присутствуют китайские (неотключаемые)
Режиссер: Даг Лайман / Doug Liman
В ролях: Том Круз (Cage), Эмили Блант (Rita), Билл Пэкстон (Master Sergeant Farell), Брендан Глисон (General Brigham), Ноа Тейлор (Dr. Carter), Джонас Армстронг (Skinner), Тони Вэй (Kimmel), Кик Гарри (Griff), Франц Драмех (Ford), Драгомир Мрсич (Kuntz), Шарлотта Райли (Nance), Масаёси Ханеда (Takeda)-Описание: В недалёком будущем раса инопланетян вторгается на Землю. Никакая армия в мире не может противостоять им. Майор Уильям Кейдж умирает в бою, но случается невозможное - он оказывается во временной петле. Раз за разом он попадает в один и тот же бой, сражается и умирает... снова и снова. И каждое повторяющееся сражение приближает его к разгадке того, как победить врага.--Качество: WEBRip-AVC
Контейнер: MKV
Видео кодек: AVC
Аудио кодек: MP3
Видео: AVC, 1040x432 (2.40:1), 1600 kbps, 30 fps, 0,119 bpp
Аудио: / MP3 / 2.0 / 48 kHz / 128 kbps / -Рип: and77200-

Рейтинг

8.10 (100 799) 8.196 (45 511)

Скриншоты

Media Info

Общее
Уникальный идентификатор : 202215657674783236816535732677528842882 (0x982151AC36088CBEA03DD6756BECF282)
Полное имя : D:\Грань будущего.2014.WEBRip-AVC.mkv
Формат : Matroska
Версия формата : Version 4 / Version 2
Размер файла : 1,37 Гбайт
Продолжительность : 1 ч. 53 м.
Общий поток : 1729 Кбит/сек
Дата кодирования : UTC 2014-09-03 13:20:09
Программа кодирования : mkvmerge v7.0.0 ('Where We Going') 64bit built on Jun 9 2014 15:16:27
Библиотека кодирования : libebml v1.3.0 + libmatroska v1.4.1
DURATION : 01:53:14.928000000
NUMBER_OF_FRAMES : 283122
NUMBER_OF_BYTES : 108718848
_STATISTICS_WRITING_APP : mkvmerge v7.0.0 ('Where We Going') 64bit built on Jun 9 2014 15:16:27
_STATISTICS_WRITING_DATE_UTC : 2014-09-03 13:20:09
_STATISTICS_TAGS : BPS DURATION NUMBER_OF_FRAMES NUMBER_OF_BYTES
Видео
Идентификатор : 1
Формат : AVC
Формат/Информация : Advanced Video Codec
Профиль формата : High@L4.1
Параметр CABAC формата : Да
Параметр ReFrames формата : 11 кадров
Идентификатор кодека : V_MPEG4/ISO/AVC
Продолжительность : 1 ч. 53 м.
Битрейт : 1600 Кбит/сек
Ширина : 1040 пикселей
Высота : 432 пикселя
Соотношение сторон : 2,40:1
Соотношение сторон в оригинале : 2,40:1
Режим частоты кадров : Постоянный
Частота кадров : 30,000 кадров/сек
Цветовое пространство : YUV
Субдискретизация насыщенности : 4:2:0
Битовая глубина : 8 бит
Тип развёртки : Прогрессивная
Бит/(Пиксели*Кадры) : 0.119
Размер потока : 1,24 Гбайт (91%)
Библиотека кодирования : x264 core 128 r2216M 198a7ea
Настройки программы : cabac=1 / ref=11 / deblock=1:0:0 / analyse=0x3:0x133 / me=umh / subme=9 / psy=1 / psy_rd=1.00:0.20 / mixed_ref=1 / me_range=16 / chroma_me=1 / trellis=0 / 8x8dct=1 / cqm=0 / deadzone=21,11 / fast_pskip=1 / chroma_qp_offset=-2 / threads=2 / lookahead_threads=1 / sliced_threads=0 / nr=0 / decimate=1 / interlaced=0 / bluray_compat=0 / constrained_intra=0 / bframes=11 / b_pyramid=0 / b_adapt=0 / b_bias=0 / direct=3 / weightb=1 / open_gop=0 / weightp=0 / keyint=300 / keyint_min=30 / scenecut=40 / intra_refresh=0 / rc_lookahead=40 / rc=2pass / mbtree=1 / bitrate=1600 / ratetol=1.0 / qcomp=0.60 / qpmin=10 / qpmax=51 / qpstep=4 / cplxblur=20.0 / qblur=0.5 / ip_ratio=1.40 / aq=1:1.00
Default : Да
Forced : Нет
DURATION : 01:53:16.700000000
NUMBER_OF_FRAMES : 203901
NUMBER_OF_BYTES : 1358366380
_STATISTICS_WRITING_APP : mkvmerge v7.0.0 ('Where We Going') 64bit built on Jun 9 2014 15:16:27
_STATISTICS_WRITING_DATE_UTC : 2014-09-03 13:20:09
_STATISTICS_TAGS : BPS DURATION NUMBER_OF_FRAMES NUMBER_OF_BYTES
Аудио
Идентификатор : 2
Формат : MPEG Audio
Версия формата : Version 1
Профиль формата : Layer 3
Режим : Joint stereo
Расширение режима : MS Stereo
Идентификатор кодека : A_MPEG/L3
Идентификатор кодека/Подсказка : MP3
Продолжительность : 1 ч. 53 м.
Вид битрейта : Постоянный
Битрейт : 128 Кбит/сек
Каналы : 2 канала
Частота : 48,0 КГц
Метод сжатия : С потерями
Размер потока : 104 Мбайт (7%)
Библиотека кодирования : LAME3.97
Язык : Russian
Default : Да
Forced : Нет
Оформление by and77200-Источник:
Показать сообщения:    

Текущее время: 18-Окт 09:59

Часовой пояс: UTC - 1


Вы не можете начинать темы
Вы не можете отвечать на сообщения
Вы не можете редактировать свои сообщения
Вы не можете удалять свои сообщения
Вы не можете голосовать в опросах
Вы не можете прикреплять файлы к сообщениям
Вы не можете скачивать файлы

!ВНИМАНИЕ!
Сайт не предоставляет электронные версии произведений, а занимается лишь коллекционированием и каталогизацией ссылок, присылаемых и публикуемых на форуме нашими читателями. Если вы являетесь правообладателем какого-либо представленного материала и не желаете, чтобы ссылка на него находилась в нашем каталоге, свяжитесь с нами, и мы незамедлительно удалим ее. Файлы для обмена на трекере предоставлены пользователями сайта, и администрация не несет ответственности за их содержание. Просьба не заливать файлы, защищенные авторскими правами, а также файлы нелегального содержания!