Важное объявление!
У Нас Все раздачи мультитрекерные, при нуле пиров в релизах, можете смело вставать на закачку!
Статистика раздачи
Размер:     |    Зарегистрирован:     |    Скачан:     |   
Нет
 
     
 
 
Автор Сообщение

HUNTER

Стаж:
5 лет
Сообщений:
67935

Репутация: 101

[+] [-]
Вне форума [Профиль] [ЛС]

-
Год выпуска: 2013
Страна: Япония
Жанр: мистика
Продолжительность: полнометражный фильм, 90 мин. + спешл, 30 мин.
Премьера: 28.09.2013-Перевод:
  • русские субтитры от Antravoco & Timecraft & Shift (полные/вспомогательные)
    редакторы: Advokat, AleX_MytH, Reaper, переводчик: To aru Evafan
-Режиссер: Судо Томонори
Студия: -Описание:
Серия родилась из обширного додзинси-романа Киноко Насу. Роман был рыхлым и слабым, поэтому позже автор переписал его как визуальную «Tsukihime», с которой началась история Type-Moon. После раскрутки фирмы с серией игр Fate, вспомнили и о «Границе», которую объявили альтернативным миром вселенной Type-Moon и экранизировали.
Действие разворачивается вокруг Шики Рёги, девушки, родившейся в клане охотников на демонов и юноше по имени Кокуто Микия, что волею судьбы стал для неё единственным другом. События фильмов разбросаны по времени и идут не по порядку.
К тому же они охватывают длительный период времени - действие романа и киногепталогии развивается в течение 4 лет – с весны 1995 до весны 1999 года.
Тема данного произведения - будущее и предсказатели. Главными героями, по сути, являются два персонажа: Сео Шизуне, обычная японская (хм) школьница, учащаяся в знакомой нам женской академии Рейен, соседка по комнате опять-таки знакомой нам Азаки, и, вы не поверите, предсказательница будущего, и Курамицу Мерука, обычный японский (хмммм...) подрывник, по совместительству, и вы опять не поверите, предсказатель будущего. Место действия - знакомый нам городок Мифуне. Время действия, в лучших традициях Границы, скачет от января 1996 до лета 2010! И вроде бы здесь есть всё: Шики (во всех возможный ипостасях), Микия, Аозака, мистически-философски-псевдонаучный мир и т.д. и т.п.
© World Art-Информационные ссылки: AniDB || World Art || MAL-Качество: BDRip
Энкод: Winter - RG Pantheon
Тип видео: без хардсаба, без линковки
Формат: mkv
Видео: x264 (Hi10p), 1280x720, ~6000 Kbps, 23.976 fps
Аудио JAP: AC3, 48000Hz, 640 Kbps, 6ch
Аудио RUS 1: FLAC, 48000Hz, 500 Kbps, 2ch (внешними файлами)-

Список озвучек в раздаче

  • двухголосая (жен./муж.) от Eladiel & Ray

Список эпизодов

01. Kara no Kyoukai: Mirai Fukui
SP. Kara no Kyoukai: Mirai Fukui Extra Chorus

Скриншоты

Подробные тех. данные

Общее
Уникальный идентификатор : 178726018760477654651716097558728867593 (0x8675610F228FD2879410AED3299AFF09)
Полное имя : Z:\Anime\720p\Kara no Kyoukai - Mirai Fukuin [BD] [720p]\[Winter] Kara no Kyoukai - Mirai Fukuin (Extra Chorus) [BDrip 1280x720 x264 AC-3].mkv
Формат : Matroska
Версия формата : Version 2
Размер файла : 1,49 Гбайт
Продолжительность : 31 м.
Общий поток : 6674 Кбит/сек
Дата кодирования : UTC 2014-02-23 13:48:25
Программа кодирования : mkvmerge v2.9.8 ('C'est le bon') built on Aug 13 2009 12:49:06
Библиотека кодирования : libebml v0.7.7 + libmatroska v0.8.1
Видео
Идентификатор : 1
Формат : AVC
Формат/Информация : Advanced Video Codec
Профиль формата : High 10@L4.1
Параметр CABAC формата : Да
Параметр ReFrames формата : 9 кадров
Идентификатор кодека : V_MPEG4/ISO/AVC
Продолжительность : 31 м.
Битрейт : 5902 Кбит/сек
Ширина : 1280 пикселей
Высота : 720 пикселей
Соотношение сторон : 16:9
Режим частоты кадров : Постоянный
Частота кадров : 23,976 кадра/сек
Цветовое пространство : YUV
Субдискретизация насыщенности : 4:2:0
Битовая глубина : 10 бит
Тип развёртки : Прогрессивная
Бит/(Пиксели*Кадры) : 0.267
Размер потока : 1,32 Гбайт (88%)
Библиотека кодирования : x264 core 132 r2309 3b1f1f7
Настройки программы : cabac=1 / ref=9 / deblock=1:-2:-2 / analyse=0x3:0x133 / me=umh / subme=9 / psy=1 / psy_rd=0.90:0.00 / mixed_ref=1 / me_range=24 / chroma_me=1 / trellis=2 / 8x8dct=1 / cqm=0 / deadzone=21,11 / fast_pskip=1 / chroma_qp_offset=-2 / threads=12 / lookahead_threads=2 / sliced_threads=0 / nr=0 / decimate=0 / interlaced=0 / bluray_compat=0 / constrained_intra=0 / bframes=8 / b_pyramid=2 / b_adapt=2 / b_bias=0 / direct=1 / weightb=1 / open_gop=0 / weightp=2 / keyint=250 / keyint_min=23 / scenecut=40 / intra_refresh=0 / rc=crf / mbtree=0 / crf=16.0 / qcomp=0.70 / qpmin=9 / qpmax=40 / qpstep=4 / ip_ratio=1.40 / pb_ratio=1.30 / aq=1:0.90 / zones=21683,21803,b=1.4/23176,24316,b=1.4/24761,24787,b=1.4/31683,31772,b=1.4
Default : Нет
Forced : Нет
Аудио
Идентификатор : 2
Формат : AC-3
Формат/Информация : Audio Coding 3
Расширение режима : CM (complete main)
Параметр Endianness формата : Big
Идентификатор кодека : A_AC3
Продолжительность : 31 м.
Вид битрейта : Постоянный
Битрейт : 640 Кбит/сек
Каналы : 6 каналов
Расположение каналов : Front: L C R, Side: L R, LFE
Частота : 48,0 КГц
Битовая глубина : 16 бит
Метод сжатия : С потерями
Размер потока : 146 Мбайт (10%)
Язык : Japanese
Default : Да
Forced : Нет
- -

Информация о релизе

  • Выбор видео, перевода, озвучки, а также типа сборки материала осуществляется релизером и не подлежит обсуждению. Если вы считаете, что раздаваемый материал противоречит правилам раздела "Аниме" rutracker.org, сообщите об этом одному из модераторов раздела.
  • В случае появления нового материала или же лучшего по качеству материала релизер оставляет за собой право обновить раздачу. В этом случае вам необходимо ознакомиться с изменениями (добавлениями) и перекачать торрент.
  • Данный релиз предназначен для просмотра на ПК. Воспроизведение на иных проигрывателях не гарантируется. Для просмотра рекомендуется Media Player Classic с установленным пакетом кодеков K-Lite.
  • Данный релиз содержит 10-битное видео (Hi10p). Для корректного воспроизведения обязательно используйте кодеки, поддерживающие 10-битное видео.
    Обсудить частные случаи проблем с воспроизведением и получить дополнительную информацию можно здесь.

  • Данный релиз предназначен для просмотра с внешними субтитрами и внешними звуковыми дорожками.
    • Для просмотра с внешней звуковой дорожкой нужно:
      перекинуть файлы .mka из папки "RUS Sound [<автор(ы) озвучки>]" в одну папку с видео и переключить звуковую дорожку в плеере при просмотре. Как это сделать в разных плеерах подробно описано здесь.

    • Для просмотра с субтитрами нужно:
      перекинуть файлы .ass из папки "RUS Subtitles [<автор(ы) перевода>]" в одну папку с видео - плеер подгрузит их автоматически при открытии видео.
  • Если у вас возникли проблемы с просмотром, не связанные с описанным выше, сообщите о них автору раздачи посредством сообщения в теме или ЛС Aglenn.

_________________
Показать сообщения:    

Текущее время: Сегодня 18:54

Часовой пояс: GMT



Вы не можете начинать темы
Вы не можете отвечать на сообщения
Вы не можете редактировать свои сообщения
Вы не можете удалять свои сообщения
Вы не можете голосовать в опросах
Вы не можете прикреплять файлы к сообщениям
Вы не можете скачивать файлы