Граница пустоты: Благословение будущего (дополнительная глава) / Kara no Kyoukai The Movie - Mirai Fukuin Extra Chorus (Судо Томонори) [OVA] [без хардсаба] [JAP+SUB] [2013 г., приключения, BDRip] [1080p] :: Ивановский Торрент трекер
Важное объявление!
У Нас Все раздачи мультитрекерные, при нуле пиров в релизах, можете смело вставать на закачку!
Статистика раздачи
Размер:     |    Зарегистрирован:     |    Скачан:     |   
Нет
 
     
 
 
Автор Сообщение

HUNTER

Стаж:
4 года 11 месяцев
Сообщений:
66098

Репутация: 101

[+] [-]
Вне форума [Профиль] [ЛС]

Граница пустоты: Extra Chorus (дополнительная глава)Kara no Kyoukai: Mirai Fukuin Extra Chorus
Год выпуска: 2013 г.
Жанр: приключения
Тип: полнометражный фильм
Продолжительность: 122 мин.

Режиссер: Судо Томонори
Автор оригинала: Насу Киноко
Студия:
-Перевод:
  • русские субтитры от Timecraft & Shift (полные)
    Переводчик: To aru Evafan; Редакторы: AleX_MytH, Reaper
-Информационные ссылки: MAL-Описание: Миру была явлена дополнительная глава Kara no Kyoukai под названием Mirai Fukuin. Она представляла собой сайд-стори и ее действие происходило позже всех семи глав основной истории. Дополнительным материалом в эту главу были включены три коротенькие манга-зарисовки за авторством Такаши Такеучи, рассказывающие о парочке ситуаций, которые могли случиться между основными действиями фильмов. Так, первая глава происходит сразу после третьего фильма (соответственно, и после второго с четвертым), так как Шики только начинает привыкать к новому протезу. Вторая глава происходит уже в 1999 году, явно после третьего и первого фильмов, так как Асагами Фуджино уже вполне жива и почти здорова. Ну, а третья глава могла происходить после Спирали Парадокса.
-
Качество: BDRip
Тип видео: без хардсаба
Релиз/Автор рипа: IEgg
Формат: MP4
Наличие линковки: нет
Видео: x264 [8 bit], 1920x1080, ~ 2934 kbps, 23.976 fps
Аудио: Jap, AAC, 2 ch, 152 кбит/сек, 44.1 кГц

-

Подробные тех.данные

[IEgg] Kara no Kyoukai The Movie - Mirai Fukuin Extra Chorus (BD 1920X1080 H264 AAC).mp4
Format : MPEG-4
Format profile : Base Media
Codec ID : isom
File size : 707 MiB
Duration : 31mn 59s
Overall bit rate mode : Variable
Overall bit rate : 3 091 Kbps
Writing application :
Video #1
ID : 1
Format : AVC
Format/Info : Advanced Video Codec
Format profile : Baseline@L4.0
Format settings, CABAC : No
Format settings, ReFrames : 1 frame
Codec ID : avc1
Codec ID/Info : Advanced Video Coding
Duration : 31mn 59s
Bit rate : 2 934 Kbps
Width : 1 920 pixels
Height : 1 080 pixels
Display aspect ratio : 16:9
Frame rate mode : Constant
Frame rate : 23.976 fps
Color space : YUV
Chroma subsampling : 4:2:0
Bit depth : 8 bits
Scan type : Progressive
Bits/(Pixel*Frame) : 0.059
Stream size : 672 MiB (95%)
Audio #2
ID : 2
Format : AAC
Format/Info : Advanced Audio Codec
Format profile : LC
Codec ID : 40
Duration : 31mn 59s
Bit rate mode : Variable
Bit rate : 152 Kbps
Channel(s) : 2 channels
Channel positions : Front: L R
Sampling rate : 44.1 KHz
Compression mode : Lossy
Stream size : 34.7 MiB (5%)

-

Эта серия состоит из:

#01 Граница пустоты: Сад грешников (фильм первый) - к/ф, адаптация ранобэ, 2007
#02 Граница пустоты: Сад грешников (фильм второй) - к/ф, продолжение, 2007
#03 Граница пустоты: Сад грешников (фильм третий) - к/ф, продолжение, 2008
#04 Граница пустоты: Сад грешников (фильм четвертый) - к/ф, продолжение, 2008
#05 Граница пустоты: Сад грешников (фильм пятый) - п/ф, продолжение, 2008
#06 Граница пустоты: Сад грешников (фильм шестой) - п/ф, продолжение, 2008
#07 Граница пустоты: Сад грешников (компиляция) - п/ф, нарезка 6 фильмов в хронологическом порядке, 2009
#08 Граница пустоты: Сад грешников (фильм седьмой) - п/ф, продолжение, 2009
#09 Граница пустоты: Сад грешников OVA - OVA (1 эп.), продолжение, 2011

#10 Граница пустоты: Благословение будущего - п/ф, продолжение, 2013

-

Скриншоты


-
Не забывайте ПИСАТЬ "СПАСИБО!" - продлите жизнь раздаче! (кнопка этого не делает)
Оставляйте свои комментарии - они всегда приветствуются!

_________________
Показать сообщения:    

Текущее время: Сегодня 15:56

Часовой пояс: GMT



Вы не можете начинать темы
Вы не можете отвечать на сообщения
Вы не можете редактировать свои сообщения
Вы не можете удалять свои сообщения
Вы не можете голосовать в опросах
Вы не можете прикреплять файлы к сообщениям
Вы не можете скачивать файлы