Ивановский Торрент трекер
Яндекс.Погода
 

[Цитировать]
димитри37

Гражданин начальник
Год выпуска: 2001
Производство: Кинокомпания КиноМост при участии ООО "Скарабей филмз"
Жанр: детектив
Продолжительность: ~ 00:50:00
Режиссёр: Николай Досталь
В ролях: Юрий Степанов, Егор Бероев, Роман Мадянов, Валерий Афанасьев, Виктор Супрун, Дмитрий Назаров, Владимир Топцов, Александр Бавтриков, Дина Корзун, Иван Рыжиков, Максим Дрозд, Алексей Шевченков, Иван Моховиков, Анастасия Логинова, Сергей Серов, Владимир Зайцев, Максим Лагашкин, Владимир Толоконников, Александр Вилькин, Наталья Симакова, Надежда Маркина, Алексей Пушкин, Дмитрий Брусникин, Яна Шивкова, Павел Поймалов, Лора Вингерт, Александр Робак, Геннадий Венгеров, Валерий Володин, Агриппина Стеклова, Сергей Тарамаев, Илья Любимов, Валентин Варецкий, Сергей Греков, Владимир Вдовиченков, Сергей Антонов, Тагир Рахимов, Егор Пазенко, Сергей Пинчук, Дмитрий Швадченко, Алексей Ошурков, Анатолий Горячев, Авангард Леонтьев
Описание: Действие происходит в наше время: увлекательная криминальная интрига разворачивается в одном из крупных областных городов. В центре ее оказывается следователь прокуратуры Пафнутьев, вынужденный по роду службы столкнуться не только с преступными элементами города, но и со всем официальным городским руководством. Чтобы победить организованную мощную структуру практически в одиночку, следователю приходится проявлять незаурядную смекалку и хитрость. Нередко прибегая к нестандартным методам.
Доп. информация:

Все раздачи сериала
Сэмпл 1
Сэмпл 2
Качество: DVDRip-AVC [Исходник: DVD9 (Спасибо nvmorjik)]
Формат: MKV
Видео кодек: H.264
Аудио кодек: AC3
Видео: AVC (H.264), 688x544@733x544 (4:3), 25.000 fps, 1862 kbps avg, 0.199 bit/pixel
Аудио: AC3, 48 kHz, 16 bits, 448 kbps, 6ch
Навигация по главам: есть

MI

Общее
Уникальный идентификатор : 242100294009459629894568757934893744924 (0xB622D211629CE9C2B495B923F1DEC31C)
Полное имя : G:\Video\Гражданин.начальник.2001.DVDRip-AVC.kvvk_2009\Гражданин.начальник.01.серия.2001.DVDRip-AVC.kvvk_2009.mkv
Формат : Matroska
Версия формата : Version 2
Размер файла : 749 Мбайт
Продолжительность : 45 м.
Общий поток : 2312 Кбит/сек
Дата кодирования : UTC 2013-05-12 11:07:47
Программа кодирования : mkvmerge v3.4.0 ('Rapunzel') built on May 15 2010 09:38:20
Библиотека кодирования : libebml v0.8.0 + libmatroska v0.9.0
Видео
Идентификатор : 1
Формат : AVC
Формат/Информация : Advanced Video Codec
Профиль формата : High@L4.1
Параметр CABAC формата : Да
Параметр ReFrames формата : 9 кадров
Идентификатор кодека : V_MPEG4/ISO/AVC
Продолжительность : 45 м.
Битрейт : 1862 Кбит/сек
Ширина : 688 пикселей
Высота : 544 пикселя
Соотношение сторон : 4:3
Соотношение сторон в оригинале : 4:3
Частота кадров : 25,000 кадров/сек
Цветовое пространство : YUV
Субдискретизация насыщенности : 4:2:0
Битовая глубина : 8 бит
Тип развёртки : Прогрессивная
Бит/(Пиксели*Кадры) : 0.199
Размер потока : 589 Мбайт (79%)
Библиотека кодирования : x264 core 130 r2273 b3065e6
Настройки программы : cabac=1 / ref=9 / deblock=1:-2:-1 / analyse=0x3:0x113 / me=umh / subme=9 / psy=1 / psy_rd=1.00:0.15 / mixed_ref=1 / me_range=32 / chroma_me=1 / trellis=2 / 8x8dct=1 / cqm=0 / deadzone=21,11 / fast_pskip=0 / chroma_qp_offset=-3 / threads=3 / lookahead_threads=1 / sliced_threads=0 / nr=0 / decimate=0 / interlaced=0 / bluray_compat=0 / constrained_intra=0 / bframes=9 / b_pyramid=2 / b_adapt=2 / b_bias=0 / direct=3 / weightb=1 / open_gop=0 / weightp=2 / keyint=250 / keyint_min=25 / scenecut=40 / intra_refresh=0 / rc_lookahead=50 / rc=2pass / mbtree=0 / bitrate=1862 / ratetol=1.0 / qcomp=0.60 / qpmin=0 / qpmax=51 / qpstep=4 / cplxblur=20.0 / qblur=0.5 / vbv_maxrate=62500 / vbv_bufsize=78125 / nal_hrd=none / ip_ratio=1.40 / pb_ratio=1.30 / aq=1:0.90
Язык : English
Default : Нет
Forced : Нет
Аудио
Идентификатор : 2
Формат : AC-3
Формат/Информация : Audio Coding 3
Расширение режима : CM (complete main)
Идентификатор кодека : A_AC3
Продолжительность : 45 м.
Вид битрейта : Постоянный
Битрейт : 448 Кбит/сек
Каналы : 6 каналов
Расположение каналов : Front: L C R, Side: L R, LFE
Частота : 48,0 КГц
Битовая глубина : 16 бит
Метод сжатия : С потерями
Размер потока : 145 Мбайт (19%)
Заголовок : AC3 6ch @ 448 kbps
Язык : Russian
Default : Да
Forced : Нет
Меню
00:00:00.000 : :00:00:00.000
00:09:54.840 : :00:09:54.840
00:18:41.280 : :00:18:41.280
00:27:36.120 : :00:27:36.120
00:36:27.960 : :00:36:27.960
00:41:13.440 : :00:41:13.440
-
Показать сообщения:    

Текущее время: 24-Окт 10:32

Часовой пояс: UTC - 1


Вы не можете начинать темы
Вы не можете отвечать на сообщения
Вы не можете редактировать свои сообщения
Вы не можете удалять свои сообщения
Вы не можете голосовать в опросах
Вы не можете прикреплять файлы к сообщениям
Вы не можете скачивать файлы

!ВНИМАНИЕ!
Сайт не предоставляет электронные версии произведений, а занимается лишь коллекционированием и каталогизацией ссылок, присылаемых и публикуемых на форуме нашими читателями. Если вы являетесь правообладателем какого-либо представленного материала и не желаете, чтобы ссылка на него находилась в нашем каталоге, свяжитесь с нами, и мы незамедлительно удалим ее. Файлы для обмена на трекере предоставлены пользователями сайта, и администрация не несет ответственности за их содержание. Просьба не заливать файлы, защищенные авторскими правами, а также файлы нелегального содержания!