Важное объявление!
У Нас Все раздачи мультитрекерные, при нуле пиров в релизах, можете смело вставать на закачку!
 
Автор Сообщение

HUNTER

Стаж:
4 года 6 месяцев
Сообщений:
61029

Репутация: 101

[+] [-]
Вне форума [Профиль] [ЛС]

Грабеж / Heist
Страна: Канада, США
Жанр: Триллер, криминал
Год выпуска: 2001
Продолжительность: 01:49:02
Перевод:
1:Профессиональный (двухголосый закадровый) - R5
2:Авторский (одноголосый закадровый) - Юрий Живов
Субтитры: Русские, английские
Навигация по главам: нет
Режиссер: Дэвид Мэмет / David Mamet
В ролях: Джин Хэкмен, Дэнни ДеВито, Делрой Линдо, Сэм Рокуэлл
Описание: У Джо Мура есть все — красивая молодая жена, деньги, которые ему должны, и работа, которую он любит. Он — вор. Его работа накрывается медным тазом тогда, когда его застукивают при помощи охранной камеры. Его соперник, Бергман шантажирует его, требуя простить долг, а его жена уходит к новичку — другу Бергмана. Мур, его партнер, Бобби Блан и их связной Пинки Пинкус вынуждены собрать команду, которая сделает ограбление по заказу Бергмана, и которое станет последним в карьере Мура.
Доп. информация:
Видеодорожка взята с iTunes (US), за содействие в покупке спасибо jhonny2
Аудио №1 взято отсюда, спасибо vavanss
Аудио №2 взято отсюда, спасибо bolibok
Русские субтитры найдены в сети.
Сэмпл: https://yadi.sk/i/lEYtEWxUe48d4
Качество: WEB-DL 720p
Контейнер: MKV
Видео: AVC 1276x720, (1.78:1), 23,976 fps, 3937 Kbps
Аудио №1: Rus; AC3 5.1; 448 Kbps; 48 kHz; DVO (R5)
Аудио №2: Rus; AC3 5.1; 384 Kbps; 48 kHz; AVO (Живов)
Аудио №3: Eng; AC3 5.1; 384 Kbps; 48 kHz; Original
Субтитры №1: Rus; SRT
Субтитры №2: Eng; SRT

MediaInfo

General
Unique ID : 211001179951592784603840023785496198246 (0x9EBD595D1BEA2452B738FC1EA3ED3C66)
Complete name : D:\FINAL\Heist.mkv
Format : Matroska
Format version : Version 4 / Version 2
File size : 4.00 GiB
Duration : 1h 49mn
Overall bit rate : 5 258 Kbps
Encoded date : UTC 2015-01-17 17:39:12
Writing application : mkvmerge v6.9.1 ('Blue Panther') 64bit built on Apr 18 2014 18:23:38
Writing library : libebml v1.3.0 + libmatroska v1.4.1
Video
ID : 1
Format : AVC
Format/Info : Advanced Video Codec
Format profile : High@L3.1
Format settings, CABAC : No
Format settings, ReFrames : 2 frames
Codec ID : V_MPEG4/ISO/AVC
Duration : 1h 49mn
Bit rate : 3 937 Kbps
Width : 1 276 pixels
Height : 720 pixels
Display aspect ratio : 16:9
Original display aspect ratio : 16:9
Frame rate mode : Constant
Frame rate : 23.976 fps
Color space : YUV
Chroma subsampling : 4:2:0
Bit depth : 8 bits
Scan type : Progressive
Bits/(Pixel*Frame) : 0.179
Stream size : 3.00 GiB (75%)
Language : English
Default : Yes
Forced : No
Color primaries : BT.709
Transfer characteristics : BT.709
Matrix coefficients : BT.709
Color range : Limited
Audio #1
ID : 2
Format : AC-3
Format/Info : Audio Coding 3
Mode extension : CM (complete main)
Format settings, Endianness : Big
Codec ID : A_AC3
Duration : 1h 49mn
Bit rate mode : Constant
Bit rate : 448 Kbps
Channel(s) : 6 channels
Channel positions : Front: L C R, Side: L R, LFE
Sampling rate : 48.0 KHz
Bit depth : 16 bits
Compression mode : Lossy
Stream size : 349 MiB (9%)
Title : DVO R5
Language : Russian
Default : No
Forced : No
Audio #2
ID : 3
Format : AC-3
Format/Info : Audio Coding 3
Mode extension : CM (complete main)
Format settings, Endianness : Big
Codec ID : A_AC3
Duration : 1h 49mn
Bit rate mode : Constant
Bit rate : 384 Kbps
Channel(s) : 6 channels
Channel positions : Front: L C R, Side: L R, LFE
Sampling rate : 48.0 KHz
Bit depth : 16 bits
Compression mode : Lossy
Stream size : 300 MiB (7%)
Title : AVO Givov
Language : Russian
Default : No
Forced : No
Audio #3
ID : 4
Format : AC-3
Format/Info : Audio Coding 3
Mode extension : CM (complete main)
Format settings, Endianness : Big
Codec ID : A_AC3
Duration : 1h 49mn
Bit rate mode : Constant
Bit rate : 384 Kbps
Channel(s) : 6 channels
Channel positions : Front: L C R, Side: L R, LFE
Sampling rate : 48.0 KHz
Bit depth : 16 bits
Compression mode : Lossy
Stream size : 300 MiB (7%)
Title : Original
Language : English
Default : No
Forced : No
Text #1
ID : 5
Format : UTF-8
Codec ID : S_TEXT/UTF8
Codec ID/Info : UTF-8 Plain Text
Title : rus
Language : Russian
Default : No
Forced : No
Text #2
ID : 6
Format : UTF-8
Codec ID : S_TEXT/UTF8
Codec ID/Info : UTF-8 Plain Text
Title : Eng
Language : English
Default : No
Forced : No

Скриншоты


_________________
Показать сообщения:    

Текущее время: Сегодня 00:40

Часовой пояс: GMT



Вы не можете начинать темы
Вы не можете отвечать на сообщения
Вы не можете редактировать свои сообщения
Вы не можете удалять свои сообщения
Вы не можете голосовать в опросах
Вы не можете прикреплять файлы к сообщениям
Вы не можете скачивать файлы
Наши партнеры: интернет магазин Ивановского трикотажа textilla.ru