Горячие новости (Андерс Банке) [2009, боевик, триллер, драма, BDRip, 1080p] :: Ивановский Торрент трекер
Важное объявление!
У Нас Все раздачи мультитрекерные, при нуле пиров в релизах, можете смело вставать на закачку!
Статистика раздачи
Размер:     |    Зарегистрирован:     |    Скачан:     |   
Нет
 
     
 
 
Автор Сообщение

HUNTER

Стаж:
4 года 11 месяцев
Сообщений:
66116

Репутация: 101

[+] [-]
Вне форума [Профиль] [ЛС]

Горячие новостиГод выпуска: 2009
Страна: Россия, Швеция
Слоган: «Хорошая страна - ни у кого нет мозгов, и оружие на каждом шагу.»
Жанр: боевик, триллер, драма, криминал
Продолжительность: 01:46:41
Перевод: Не требуется
Русские субтитры: есть
Режиссер: Андерс Банке
Сценарий: Сэм Клебанов, Александр Лунгин
Продюсер: Питер Хилтунен, Анна Качко, Сэм Клебанов, Александр Сизов
Оператор: Крис Марис
В ролях: Сергей Гармаш (киллер), Андрей Мерзликин (Смирнов), Мария Машкова (Катя), Евгений Цыганов (Герман), Максим Коновалов (Клей), Алексей Франдетти (Орда), Юлия Кронрод (девушка со скутером), Юрий Шлыков (генерал), Сэм Клебанов (режиссер), Артем Семакин (Валера), Иван Суханов (Вадик, сын Юры), Виктор Чепелов (Саня)-Бюджет: $4 000 000
Сборы в России: $626 312
Мировая премьера: 24 апреля 2009
Релиз на DVD: 16 июля 2009, 28 мая 2009, «Настроение VIDEO»-Описание: В центре Москвы группа оперативников под руководством майора Смирнова готовит операцию по захвату банды вооруженных преступников во главе с загадочным и неуловимым Германом. В неожиданно вспыхнувшей жестокой перестрелке стражи порядка терпят унизительное поражение, а случайно оказавшаяся на месте событий телевизионная съемочная группа снимает и передает в эфир репортаж о милицейском фиаско.
Молодая и амбициозная начальница PR-службы Катя Вербицкая предлагает свой план спасения «чести мундира»: московская милиция сможет восстановить свое доброе имя, превратив поимку особо-опасной банды в мультимедийное реалити-шоу. Но попавшие под прицел телекамер бандиты в долгу не остаются - они захватывают заложников и начинают свою собственную трансляцию через интернет.
Война между милицией и преступниками разворачивается и в реальном мире, и в виртуальном пространстве. Но есть в этой войне еще одна сторона - Смирнов. Его не интересуют медийные проекты - им движет чувство долга и жажда мести.- -Качество: BDRip (VIAgra)
Формат: Matroska
Видео: AVC; 1920x816 (2.35:1); 9924 Kbps; 23.976 fps; 0.258 bpp
Аудио: Russian; DTS; 1509 Kbps; 48 Khz; 6 ch
Субтитры №1: Russian
Субтитры №2: English-

Media Info

General
Complete name : D:\BDRip 1080p\Goryachie.Novosti.2009.BDRip.1080p.Rus.DTS.Subs.x264.dxva-VIAgra.mkv
Format : Matroska
File size : 8.51 GiB
Duration : 1h 46mn
Overall bit rate : 11.4 Mbps
Encoded date : UTC 2010-05-29 11:46:30
Writing application : mkvmerge v3.4.0 ('Rapunzel') built on May 15 2010 09:38:20
Writing library : libebml v0.8.0 + libmatroska v0.9.0
Video
ID : 1
Format : AVC
Format/Info : Advanced Video Codec
Format profile : High@L4.1
Format settings, CABAC : Yes
Format settings, ReFrames : 5 frames
Muxing mode : Container profile=Unknown@4.1
Codec ID : V_MPEG4/ISO/AVC
Duration : 1h 46mn
Bit rate : 9 679 Kbps
Nominal bit rate : 9 924 Kbps
Width : 1 920 pixels
Height : 816 pixels
Display aspect ratio : 2.35:1
Frame rate : 23.976 fps
Resolution : 8 bits
Colorimetry : 4:2:0
Scan type : Progressive
Bits/(Pixel*Frame) : 0.258
Stream size : 7.21 GiB (85%)
Title : x264.dxva-VIAgra
Writing library : x264 core 94 r1583 7608d73
Encoding settings : cabac=1 / ref=5 / deblock=1:-3:-3 / analyse=0x3:0x113 / me=umh / subme=10 / psy=1 / psy_rd=0.90:0.00 / mixed_ref=1 / me_range=64 / chroma_me=1 / trellis=2 / 8x8dct=1 / cqm=0 / deadzone=21,11 / fast_pskip=0 / chroma_qp_offset=-2 / threads=3 / sliced_threads=0 / nr=0 / decimate=0 / interlaced=0 / constrained_intra=0 / bframes=7 / b_pyramid=2 / b_adapt=2 / b_bias=0 / direct=3 / weightb=1 / weightp=2 / keyint=250 / keyint_min=25 / scenecut=40 / intra_refresh=0 / rc_lookahead=0 / rc=2pass / mbtree=0 / bitrate=9924 / ratetol=1.0 / qcomp=0.75 / qpmin=10 / qpmax=51 / qpstep=4 / cplxblur=20.0 / qblur=0.5 / vbv_maxrate=50000 / vbv_bufsize=62500 / ip_ratio=1.40 / pb_ratio=1.30 / aq=1:0.75 / nal_hrd=none
Language : Russian
Audio
ID : 2
Format : DTS
Format/Info : Digital Theater Systems
Codec ID : A_DTS
Duration : 1h 46mn
Bit rate mode : Constant
Bit rate : 1 510 Kbps
Channel(s) : 6 channels
Channel positions : Front: L C R, Side: L R, LFE
Sampling rate : 48.0 KHz
Resolution : 24 bits
Stream size : 1.13 GiB (13%)
Title : DTS; 1509 Kbps @ 5.1 ch
Language : Russian
Text #1
ID : 3
Format : UTF-8
Codec ID : S_TEXT/UTF8
Codec ID/Info : UTF-8 Plain Text
Title : Rus-Full (From DVD)
Language : Russian
Text #2
ID : 4
Format : UTF-8
Codec ID : S_TEXT/UTF8
Codec ID/Info : UTF-8 Plain Text
Title : Eng-Full (From Blu-ray)
Language : English
Menu
00:00:00.000 : en:00:00:00.000
00:05:18.485 : en:00:05:18.485
00:12:10.730 : en:00:12:10.730
00:16:45.004 : en:00:16:45.004
00:23:34.121 : en:00:23:34.121
00:26:50.317 : en:00:26:50.317
00:32:09.177 : en:00:32:09.177
00:35:23.621 : en:00:35:23.621
00:41:57.306 : en:00:41:57.306
00:46:49.265 : en:00:46:49.265
00:50:39.912 : en:00:50:39.912
00:55:29.826 : en:00:55:29.826
01:01:55.462 : en:01:01:55.462
01:07:53.069 : en:01:07:53.069
01:12:24.799 : en:01:12:24.799
01:16:35.382 : en:01:16:35.382
01:20:54.641 : en:01:20:54.641
01:26:26.973 : en:01:26:26.973
01:28:13.538 : en:01:28:13.538
01:30:54.866 : en:01:30:54.866
01:34:54.606 : en:01:34:54.606
01:42:08.122 : en:01:42:08.122
01:43:33.707 : en:01:43:33.707

log x264

[Information] Log for job6 (video, Script.avs -> NEWSMAKERS-VIAgra.mkv)
-[Information] [5/27/2010 6:47:21 AM] Started handling job
-[Information] [5/27/2010 6:47:21 AM] Preprocessing
-[NoImage] Job commandline: "C:\Program Files\MeGUI\tools\x264\x264.exe" --level 4.1 --pass 2 --bitrate 9924 --stats "D:\x264\NEWS\NEWSMAKERS-VIAgra.stats" --threads 3 --deblock -3:-3 --bframes 7 --b-adapt 2 --ref 5 --vbv-bufsize 62500 --vbv-maxrate 50000 --qcomp 0.75 --no-mbtree --aq-strength 0.75 --merange 64 --me umh --direct auto --subme 10 --trellis 2 --psy-rd 0.90:0 --no-dct-decimate --no-fast-pskip --sar 1:1 --output "D:\x264\NEWS\NEWSMAKERS-VIAgra.mkv" "D:\x264\Script.avs"
-[Information] [5/27/2010 6:47:24 AM] Encoding started
-[NoImage] Standard output stream
-[NoImage] Standard error stream
--[NoImage] avs [info]: 1920x816p 1:1 @ 2500000/104271 fps (cfr)
--[NoImage] x264 [info]: using SAR=1/1
--[NoImage] x264 [info]: using cpu capabilities: MMX2 SSE2Fast SSSE3 FastShuffle SSE4.1 Cache64
--[NoImage] x264 [info]: profile High, level 4.1
--[NoImage]
--[NoImage] x264 [info]: frame I:1211 Avg QP:14.81 size:208633
--[NoImage] x264 [info]: frame P:31952 Avg QP:18.11 size: 78675
--[NoImage] x264 [info]: frame B:120317 Avg QP:19.66 size: 42875
--[NoImage] x264 [info]: consecutive B-frames: 0.9% 2.0% 7.9% 13.4% 18.5% 52.5% 4.0% 0.8%
--[NoImage] x264 [info]: mb I I16..4: 4.3% 86.9% 8.8%
--[NoImage] x264 [info]: mb P I16..4: 3.7% 21.9% 1.0% P16..4: 37.4% 24.0% 9.5% 0.0% 0.0% skip: 2.6%
--[NoImage] x264 [info]: mb B I16..4: 0.2% 2.8% 0.1% B16..8: 41.9% 13.9% 3.0% direct:13.2% skip:24.9% L0:43.9% L1:43.2% BI:12.9%
--[NoImage] x264 [info]: 8x8 transform intra:84.9% inter:64.9%
--[NoImage] x264 [info]: direct mvs spatial:98.7% temporal:1.3%
--[NoImage] x264 [info]: coded y,uvDC,uvAC intra: 87.6% 79.9% 55.5% inter: 48.4% 27.2% 6.0%
--[NoImage] x264 [info]: i16 v,h,dc,p: 67% 9% 9% 15%
--[NoImage] x264 [info]: i8 v,h,dc,ddl,ddr,vr,hd,vl,hu: 10% 10% 9% 9% 12% 12% 12% 12% 13%
--[NoImage] x264 [info]: i4 v,h,dc,ddl,ddr,vr,hd,vl,hu: 10% 9% 5% 9% 15% 14% 14% 11% 13%
--[NoImage] x264 [info]: i8c dc,h,v,p: 45% 23% 19% 13%
--[NoImage] x264 [info]: Weighted P-Frames: Y:1.2%
--[NoImage] x264 [info]: ref P L0: 51.9% 6.0% 21.9% 11.5% 8.1% 0.6% 0.0%
--[NoImage] x264 [info]: ref B L0: 76.6% 17.0% 5.0% 1.4%
--[NoImage] x264 [info]: ref B L1: 92.4% 7.6%
--[NoImage] x264 [info]: kb/s:9904.17
--[NoImage] encoded 153480 frames, 0.83 fps, 9904.18 kb/s
-[Information] Final statistics
--[NoImage] Video Bitrate Desired: 9924 kbit/s
--[NoImage] Video Bitrate Obtained (approximate): 9905 kbit/s
-[Information] [5/29/2010 10:11:34 AM] Postprocessing
--[Information] Deleting intermediate files
---[Information] [5/29/2010 10:11:34 AM] Successfully deleted D:\x264\NEWS\NEWSMAKERS-VIAgra.stats
---[Information] [5/29/2010 10:11:34 AM] Successfully deleted D:\x264\NEWS\NEWSMAKERS-VIAgra.stats.mbtree
-[Information] [5/29/2010 10:11:34 AM] Job completed

-

Instigator-NN (этот рип) vs Titans (from Sample)




Знаете ли Вы, что...

  • Все кассеты в доме таксиста Юрия лежат так, что не видно их корок. Исключение составляет лишь кассета с фильмом «Плутовство» Барри Левинсона.
  • Фильм является ремейком китайского фильма режиссера Джонни То "Горячие (Экстренные) новости"

_________________
Показать сообщения:    

Текущее время: Сегодня 16:16

Часовой пояс: GMT



Вы не можете начинать темы
Вы не можете отвечать на сообщения
Вы не можете редактировать свои сообщения
Вы не можете удалять свои сообщения
Вы не можете голосовать в опросах
Вы не можете прикреплять файлы к сообщениям
Вы не можете скачивать файлы