Важное объявление!
У Нас Все раздачи мультитрекерные, при нуле пиров в релизах, можете смело вставать на закачку!
Статистика раздачи
Размер:     |    Зарегистрирован:     |    Скачан:     |   
Нет
 
     
 
 
Автор Сообщение

HUNTER

Стаж:
5 лет
Сообщений:
67979

Репутация: 101

[+] [-]
Вне форума [Профиль] [ЛС]

Город Террора / Scar City / Scarred City / S.C.A.R.
Страна: США
Студия: Millenium / u Image Films
Жанр: боевик
Год выпуска: 1998
Продолжительность: 01:32:06
Перевод: Профессиональный (двухголосый закадровый)
Cубтитры: нет
Оригинальная аудиодорожка: английский
Режиссер: Кен Сэнзел / Ken Sanzel
В ролях: Стивен Болдуин, Тиа Каррере, Стивен Флинн, Чазз Палминтери
Описание: Во время задержания торговца наркотиками полицейский Джон Трейс стреляет в убегавшего парня и убивает его. Ситуация принимает серьезный оборот, так как у Трейса это уже четвертое применение огнестрельного оружия за последний год. Нашему герою грозит внутреннее расследование и вероятное временное отстранение от службы. Но тут Трейсу приходит на помощь начальник специального отдела лейтенант Девон, который подбрасывает на место преступления пистолет, который, якобы, был у убегавшего наркоторговца. В обмен на закрытие этого дела лейтенант Девон предлагает Трейсу войти в состав его отряда, который занимается специальными операциями…Приличный дебютный фильм режиссера.
Доп. информация: Диск из собственной колекции.
Сэмпл: http://sendfile.su/1144671
Тип релиза: DVD5 (Custom)
Контейнер: DVD-Video
Видео: PAL 4:3 (720x576) VBR
Аудио: Russian (Dolby AC3, 224 Kbps, 6 ch)
Аудио 2: English (Dolby AC3, 224 Kbps, 2 ch)

DVDInfo

Size: 3.59 Gb ( 3 769 294 KBytes ) - DVD-5
Enabled regions: 1, 2, 3, 4, 5, 6
VTS_01 :
Play Length: 00:00:30
Video: PAL 4:3 (720x576) VBR
VTS_02 :
Play Length: 01:32:06
Video: PAL 4:3 (720x576) VBR
Audio:
Russian (Dolby AC3, 6 ch)
English (Dolby AC3, 2 ch)
Menu Video:
PAL 4:3 (720x576) VBR
Menu English Language Unit :
Root Menu

MediaInfo

General
Complete name : K:\Scarred City_1998\VIDEO_TS\VTS_02_1.VOB
Format : MPEG-PS
File size : 1 024 MiB
Duration : 25mn 44s
Overall bit rate mode : Variable
Overall bit rate : 5 563 Kbps
Video
ID : 224 (0xE0)
Format : MPEG Video
Format version : Version 2
Format profile : Main@Main
Format settings, BVOP : Yes
Format settings, Matrix : Custom
Format settings, GOP : M=3, N=12
Duration : 25mn 44s
Bit rate mode : Variable
Maximum bit rate : 5 000 Kbps
Width : 720 pixels
Height : 576 pixels
Display aspect ratio : 4:3
Frame rate : 25.000 fps
Standard : PAL
Color space : YUV
Chroma subsampling : 4:2:0
Bit depth : 8 bits
Scan type : Interlaced
Scan order : Top Field First
Compression mode : Lossy
Audio #1
ID : 189 (0xBD)-128 (0x80)
Format : AC-3
Format/Info : Audio Coding 3
Mode extension : CM (complete main)
Format settings, Endianness : Big
Muxing mode : DVD-Video
Duration : 25mn 43s
Bit rate mode : Constant
Bit rate : 224 Kbps
Channel(s) : 6 channels
Channel positions : Front: L C R, Side: L R, LFE
Sampling rate : 48.0 KHz
Bit depth : 16 bits
Compression mode : Lossy
Delay relative to video : -80ms
Stream size : 41.2 MiB (4%)
Audio #2
ID : 189 (0xBD)-129 (0x81)
Format : AC-3
Format/Info : Audio Coding 3
Mode extension : CM (complete main)
Format settings, Endianness : Big
Muxing mode : DVD-Video
Duration : 25mn 43s
Bit rate mode : Constant
Bit rate : 224 Kbps
Channel(s) : 2 channels
Channel positions : Front: L R
Sampling rate : 48.0 KHz
Bit depth : 16 bits
Compression mode : Lossy
Delay relative to video : -80ms
Stream size : 41.2 MiB (4%)
Audio #3
ID : 221 (0xDD)
Format : MPEG Audio
Compression mode : Lossy
Menu

Скриншоты меню


_________________
Показать сообщения:    

Текущее время: Сегодня 07:00

Часовой пояс: GMT



Вы не можете начинать темы
Вы не можете отвечать на сообщения
Вы не можете редактировать свои сообщения
Вы не можете удалять свои сообщения
Вы не можете голосовать в опросах
Вы не можете прикреплять файлы к сообщениям
Вы не можете скачивать файлы