Ивановский Торрент трекер
Яндекс.Погода
 

[Цитировать]
Shalun

Город порока / Broken City- Год выпуска: 2013
Выпущено: США / Regency Enterprises, Emmett/Furla Films, Black Bear Pictures
Жанр: триллер, драма, криминал
Продолжительность: 01:48:40
Перевод: Профессиональный (многоголосый закадровый)
Cубтитры: нет-Режиссер:
Аллен Хьюз / Allen Hughes-В ролях:
Марк Уолберг (Billy Taggart), Рассел Кроу (Mayor Hostetler), Кэтрин Зета-Джонс (Cathleen Hostetler), Барри Пеппер (Jack Valliant), Кайл Чандлер (Paul Andrews), Натали Мартинез (Natalie Barrow), Джеффри Райт (Carl Fairbanks), Алона Тал (Katy Bradshaw), Майкл Бич (Tony Jansen), Джеймс Рэнсон (Todd Lancaster)-Описание:
История бывшего полицейского Билли Таггерта. 7 лет назад он стрелял в 16-летнего подростка, за что был уволен из полиции. Теперь Таггерт работает частным детективом, которого нанимает мэр, чтобы тот разузнал, не изменяет ли ему жена. Однако расследование адюльтера супруги мэра выливается в настоящий скандал. Человек, с которым жена мэра изменяла мужу, убит, а на поверхность всплывает нехорошая история с недвижимостью.-Релиз группы | IMDB | КиноПоиск | Сэмпл |-Качество: BDRip [Broken.City.2013.1080p.BluRay.AVC.DTS-HD.MA.5.1-EbP]
Формат: AVI
Видео: 720x304 (2.37:1), 23.976 fps, XviD build 65 ~1529 kbps avg, 0.29 bit/pixel
Аудио: 48 kHz, AC3 Dolby Digital, 3/2 (L,C,R,l,r) + LFE ch, ~384.00 kbps avg- -

MediaInfo

Общее
Полное имя                               : H:\Gorod_poroka_2013_BDRip_MVO_by_Dalemake.avi
Формат                                   : AVI
Формат/Информация                        : Audio Video Interleave
Размер файла                             : 1,46 Гбайт
Продолжительность                        : 1 ч. 48 м.
Общий поток                              : 1923 Кбит/сек
Программа кодирования                    : VirtualDubMod 1.5.10.3 | www.virtualdub-fr.org || (build 2550/release)
Библиотека кодирования                   : VirtualDubMod build 2550/release
Видео
Идентификатор                            : 0
Формат                                   : MPEG-4 Visual
Профиль формата                          : Advanced Simple@L5
Параметр BVOP формата                    : 1
Параметр QPel формата                    : Нет
Параметр GMC формата                     : Без точки перехода
Параметр матрицы формата                 : Выборочная
Идентификатор кодека                     : XVID
Идентификатор кодека/Подсказка           : XviD
Продолжительность                        : 1 ч. 48 м.
Битрейт                                  : 1530 Кбит/сек
Ширина                                   : 720 пикселей
Высота                                   : 304 пикселя
Соотношение сторон                       : 2,35:1
Частота кадров                           : 23,976 кадра/сек
Цветовое пространство                    : YUV
Субдискретизация насыщенности            : 4:2:0
Битовая глубина                          : 8 бит
Тип развёртки                            : Прогрессивная
Метод сжатия                             : С потерями
Бит/(Пиксели*Кадры)                      : 0.292
Размер потока                            : 1,16 Гбайт (80%)
Библиотека кодирования                   : XviD 65
Аудио
Идентификатор                            : 1
Формат                                   : AC-3
Формат/Информация                        : Audio Coding 3
Расширение режима                        : CM (complete main)
Параметр Endianness формата              : Big
Идентификатор кодека                     : 2000
Продолжительность                        : 1 ч. 48 м.
Вид битрейта                             : Постоянный
Битрейт                                  : 384 Кбит/сек
Каналы                                   : 6 каналов
Расположение каналов                     : Front: L C R, Side: L R, LFE
Частота                                  : 48,0 КГц
Битовая глубина                          : 16 бит
Метод сжатия                             : С потерями
Размер потока                            : 298 Мбайт (20%)
Выравнивание                             : Разделение по промежуткам
Продолжительность промежутка             : 42  мс. (1,00 видеокадр)
Время предзагрузки промежутка            : 500  мс.
Показать сообщения:    

Текущее время: 24-Окт 10:30

Часовой пояс: UTC - 1


Вы не можете начинать темы
Вы не можете отвечать на сообщения
Вы не можете редактировать свои сообщения
Вы не можете удалять свои сообщения
Вы не можете голосовать в опросах
Вы не можете прикреплять файлы к сообщениям
Вы не можете скачивать файлы

!ВНИМАНИЕ!
Сайт не предоставляет электронные версии произведений, а занимается лишь коллекционированием и каталогизацией ссылок, присылаемых и публикуемых на форуме нашими читателями. Если вы являетесь правообладателем какого-либо представленного материала и не желаете, чтобы ссылка на него находилась в нашем каталоге, свяжитесь с нами, и мы незамедлительно удалим ее. Файлы для обмена на трекере предоставлены пользователями сайта, и администрация не несет ответственности за их содержание. Просьба не заливать файлы, защищенные авторскими правами, а также файлы нелегального содержания!