Важное объявление!
У Нас Все раздачи мультитрекерные, при нуле пиров в релизах, можете смело вставать на закачку!
Статистика раздачи
Размер:     |    Зарегистрирован:     |    Скачан:     |   
Нет
 
     
 
 
Автор Сообщение

Shalun

Стаж:
5 лет
Сообщений:
802

Репутация: 123

[+] [-]
Вне форума [Профиль] [ЛС]

-Город порока / Broken City
«Proof Can Be a Powerful Weapon.»
-
Страна: США
Студия: Emmett/Furla Films, Inferno International, Regency Enterprises
Жанр: триллер, драма, криминал
Год выпуска: 2013
Продолжительность: 01:48:40
Перевод: русский профессиональный (многоголосый, закадровый)
Оригинальная аудиодорожка: английская
Русские субтитры: нет
Режиссер: Аллен Хьюз / Allen Hughes
В ролях: Марк Уолберг, Рассел Кроу, Кэтрин Зета-Джонс, Барри Пеппер, Кайл Чандлер, Натали Мартинез, Джеффри Райт, Алона Тал, Майкл Бич, Джеймс Рэнсон

История бывшего полицейского Билли Таггерта. 7 лет назад он стрелял в 16-летнего подростка, за что был уволен из полиции. Теперь Таггерт работает частным детективом, которого нанимает мэр, чтобы тот разузнал, не изменяет ли ему жена. Однако расследование адюльтера супруги мэра выливается в настоящий скандал. Человек, с которым жена мэра изменяла мужу, убит, а на поверхность всплывает нехорошая история с недвижимостью.
Тип релиза: BDRip 1080p
Контейнер: MKV
Видео кодек: x264
Аудио кодек: AC3
Видео: AVC / High@L4.1 / 23,976 fps / 1920x798p / 12,5 Mbps / 0.340
Аудио 1: AC3 / 5.1 ch / 640 kbps / Русский MVO*
* Получен из псевдо-дубляжа, "гуляющего" в сети: на поверку слышна оригинальная речь в тылах и фронтах, причем это все "задавлено" (видимо в попытке скрыть) по самые немогу. Псевдо он еще и по причине озвучки другими актерами, нежели будет на лицензии (хотя, субъективно, голоса на слух воспринимаются хорошо).
Аудио 2: AC3 / 5.1 ch / 640 kbps / Английский
Субтитры: [softsub SRT]
Английские Full
Английские SDH
Английские SDH COLOR
Дополнительно: Сохранены оригинальные чаптеры как на Blu-ray- - -

Дополнительно о фильме:

Технические детали съёмки:

Производство, студия дубляжа, прокат:

Log x264:

x264 [info]: frame I:1522 Avg QP:12.25 size:220332
x264 [info]: frame P:36686 Avg QP:15.34 size:133155
x264 [info]: frame B:149382 Avg QP:17.65 size: 81288

MediaInfo:

Общее
Уникальный идентификатор : 182785713284504804147493603583251514125 (0x89833F73E3AAC5A3B30FE44CE47D030D)
Полное имя : F:Скачка торрентBroken.City.2013.BDRip1080p(HDMaNiAcS).mkv
Формат : Matroska
Версия формата : Version 4 / Version 2
Размер файла : 10,5 Гбайт
Продолжительность : 1 ч. 48 м.
Общий поток : 13,8 Мбит/сек
Название фильма : Broken City (2013) by HDMaNiAcS
Дата кодирования : UTC 2013-04-28 10:09:08
Программа кодирования : mkvmerge v6.1.0 ('Old Devil') built on Mar 2 2013 14:32:37
Библиотека кодирования : libebml v1.3.0 + libmatroska v1.4.0
Видео
Идентификатор : 1
Формат : AVC
Формат/Информация : Advanced Video Codec
Профиль формата : High@L4.1
Параметр CABAC формата : Да
Параметр ReFrames формата : 5 кадров
Идентификатор кодека : V_MPEG4/ISO/AVC
Продолжительность : 1 ч. 48 м.
Битрейт : 12,5 Мбит/сек
Ширина : 1920 пикселей
Высота : 798 пикселей
Соотношение сторон : 2,40:1
Режим частоты кадров : Постоянный
Частота кадров : 23,976 кадра/сек
Цветовое пространство : YUV
Субдискретизация насыщенности : 4:2:0
Битовая глубина : 8 бит
Тип развёртки : Прогрессивная
Бит/(Пиксели*Кадры) : 0.340
Размер потока : 9,28 Гбайт (89%)
Заголовок : Broken City (2013)
Библиотека кодирования : x264 core 130 r2273 b3065e6
Настройки программы : cabac=1 / ref=5 / deblock=1:-3:-3 / analyse=0x3:0x133 / me=tesa / subme=11 / psy=1 / psy_rd=1.10:0.00 / mixed_ref=1 / me_range=24 / chroma_me=1 / trellis=2 / 8x8dct=1 / cqm=0 / deadzone=21,11 / fast_pskip=1 / chroma_qp_offset=-2 / threads=12 / lookahead_threads=2 / sliced_threads=0 / nr=0 / decimate=1 / interlaced=0 / bluray_compat=0 / constrained_intra=0 / bframes=8 / b_pyramid=2 / b_adapt=2 / b_bias=0 / direct=3 / weightb=1 / open_gop=0 / weightp=2 / keyint=240 / keyint_min=23 / scenecut=40 / intra_refresh=0 / rc=2pass / mbtree=0 / bitrate=12500 / ratetol=1.0 / qcomp=0.60 / qpmin=10 / qpmax=69 / qpstep=4 / cplxblur=20.0 / qblur=0.5 / ip_ratio=1.40 / pb_ratio=1.30 / aq=2:0.55
Язык : English
Default : Да
Forced : Нет
Аудио #1
Идентификатор : 2
Формат : AC-3
Формат/Информация : Audio Coding 3
Расширение режима : CM (complete main)
Параметр Endianness формата : Big
Идентификатор кодека : A_AC3
Продолжительность : 1 ч. 48 м.
Вид битрейта : Постоянный
Битрейт : 640 Кбит/сек
Каналы : 6 каналов
Расположение каналов : Front: L C R, Side: L R, LFE
Частота : 48,0 КГц
Битовая глубина : 16 бит
Метод сжатия : С потерями
Размер потока : 497 Мбайт (5%)
Заголовок : AC3 / 5.1 ch / 640 kbps / Русский MVO
Язык : Russian
Default : Да
Forced : Нет
Аудио #2
Идентификатор : 3
Формат : AC-3
Формат/Информация : Audio Coding 3
Расширение режима : CM (complete main)
Параметр Endianness формата : Big
Идентификатор кодека : A_AC3
Продолжительность : 1 ч. 48 м.
Вид битрейта : Постоянный
Битрейт : 640 Кбит/сек
Каналы : 6 каналов
Расположение каналов : Front: L C R, Side: L R, LFE
Частота : 48,0 КГц
Битовая глубина : 16 бит
Метод сжатия : С потерями
Размер потока : 497 Мбайт (5%)
Заголовок : AC3 / 5.1 ch / 640 kbps / Английский original, BD
Язык : English
Default : Нет
Forced : Нет
Текст #1
Идентификатор : 4
Формат : UTF-8
Идентификатор кодека : S_TEXT/UTF8
Идентификатор кодека/Информация : UTF-8 Plain Text
Заголовок : Full
Язык : English
Default : Нет
Forced : Нет
Текст #2
Идентификатор : 5
Формат : UTF-8
Идентификатор кодека : S_TEXT/UTF8
Идентификатор кодека/Информация : UTF-8 Plain Text
Заголовок : SDH
Язык : English
Default : Нет
Forced : Нет
Текст #3
Идентификатор : 6
Формат : UTF-8
Идентификатор кодека : S_TEXT/UTF8
Идентификатор кодека/Информация : UTF-8 Plain Text
Заголовок : SDH-COLOR
Язык : English
Default : Нет
Forced : Нет
Меню
00:00:00.000 : :Chapter 01
00:07:27.446 : :Chapter 02
00:14:28.325 : :Chapter 03
00:20:49.122 : :Chapter 04
00:29:02.157 : :Chapter 05
00:34:05.460 : :Chapter 06
00:40:37.518 : :Chapter 07
00:46:11.685 : :Chapter 08
00:52:03.370 : :Chapter 09
01:00:58.571 : :Chapter 10
01:08:01.619 : :Chapter 11
01:14:20.873 : :Chapter 12
01:23:21.121 : :Chapter 13
01:28:38.021 : :Chapter 14
01:35:52.163 : :Chapter 15
01:42:36.525 : :Chapter 16

Скриншоты:

Немного рецензий с Кинопоиска.Ру:



-

_________________
Показать сообщения:    

Текущее время: Сегодня 08:57

Часовой пояс: GMT



Вы не можете начинать темы
Вы не можете отвечать на сообщения
Вы не можете редактировать свои сообщения
Вы не можете удалять свои сообщения
Вы не можете голосовать в опросах
Вы не можете прикреплять файлы к сообщениям
Вы не можете скачивать файлы