Важное объявление!
У Нас Все раздачи мультитрекерные, при нуле пиров в релизах, можете смело вставать на закачку!
 
Автор Сообщение

Vanya_o3

[Профиль] [ЛС]

-
Год выпуска: 2013
Страна: США
Жанр: триллер, драма, криминал, ...
Продолжительность: 01:48:56-Перевод: Любительский (одноголосый)
Режиссер: Аллен Хьюз / Allen Hughes
В ролях: Марк Уолберг (Billy Taggart), Рассел Кроу (Mayor Hostetler), Кэтрин Зета-Джонс (Cathleen Hostetler), Барри Пеппер (Jack Valliant), Кайл Чандлер (Paul Andrews), Натали Мартинез (Natalie Barrow), Джеффри Райт (Carl Fairbanks), Алона Тал (Katy Bradshaw), Майкл Бич (Tony Jansen), Джеймс Рэнсон (Todd Lancaster), Гриффин Данн (Sam Lancaster), Одесса Сайкес (Secretary - Hostetler)-Описание: История бывшего полицейского Билли Таггерта. Восемь лет назад он стрелял в 16-летнего подростка, за что был уволен из полиции. Теперь Таггерт работает частным детективом, которого нанимает мэр, чтобы тот разузнал, не изменяет ли ему жена. Однако расследование адюльтера супруги мэра выливается в настоящий скандал. Человек, с которым жена мэра изменяла мужу, убит, а на поверхность всплывает нехорошая история с недвижимостью.--Качество: HDRip - AVC
Контейнер: MKV
Видео кодек: AVC
Аудио кодек: AC3
Видео: AVC, 1024x424 (2.40:1), 2200 kbps, 23,976 fps, 0,211 bpp
Аудио: русский / AC3 / 5.1 / 48 kHz / 384 kbps / 16 bit-Рип: and77200

Скриншоты



Media Info

General
Complete name : E:\торрент\Город порока (2013) HDRip - AVC.mkv
Format : Matroska
File size : 1.96 GiB
Duration : 1h 48mn
Overall bit rate : 2 581 Kbps
Encoded date : UTC 2013-04-14 11:04:25
Writing application : mkvmerge v5.7.0 ('The Whirlwind') built on Jul 8 2012 20:08:51
Writing library : libebml v1.2.3 + libmatroska v1.3.0
Video
ID : 1
Format : AVC
Format/Info : Advanced Video Codec
Format profile : High@L4.1
Format settings, CABAC : Yes
Format settings, ReFrames : 5 frames
Muxing mode : Container profile=Unknown@4.1
Codec ID : V_MPEG4/ISO/AVC
Duration : 1h 48mn
Bit rate : 2 145 Kbps
Nominal bit rate : 2 200 Kbps
Width : 1 024 pixels
Height : 424 pixels
Display aspect ratio : 2.40:1
Frame rate mode : Variable
Frame rate : 23.976 fps
Resolution : 24 bits
Colorimetry : 4:2:0
Scan type : Progressive
Bits/(Pixel*Frame) : 0.206
Stream size : 1.63 GiB (83%)
Writing library : x264 core 124 r2197M 69a0443
Encoding settings : cabac=1 / ref=6 / deblock=1:0:0 / analyse=0x3:0x133 / me=umh / subme=9 / psy=1 / psy_rd=1.00:0.20 / mixed_ref=1 / me_range=16 / chroma_me=1 / trellis=0 / 8x8dct=1 / cqm=0 / deadzone=21,11 / fast_pskip=1 / chroma_qp_offset=-2 / threads=2 / sliced_threads=0 / nr=0 / decimate=1 / interlaced=0 / bluray_compat=0 / constrained_intra=0 / bframes=6 / b_pyramid=1 / b_adapt=0 / b_bias=0 / direct=3 / weightb=1 / open_gop=0 / weightp=0 / keyint=230 / keyint_min=23 / scenecut=40 / intra_refresh=0 / rc_lookahead=40 / rc=2pass / mbtree=1 / bitrate=2200 / ratetol=1.0 / qcomp=0.60 / qpmin=10 / qpmax=51 / qpstep=6 / cplxblur=20.0 / qblur=0.5 / ip_ratio=1.40 / aq=1:1.00
Audio
ID : 2
Format : AC-3
Format/Info : Audio Coding 3
Codec ID : A_AC3
Duration : 1h 48mn
Bit rate mode : Constant
Bit rate : 384 Kbps
Channel(s) : 6 channels
Channel positions : Front: L C R, Surround: L R, LFE
Sampling rate : 48.0 KHz
Stream size : 299 MiB (15%)
Language : Russian
Menu
00:00:00.000 : en:1
00:02:23.000 : en:2
00:07:27.000 : en:3
00:10:57.000 : en:4
00:14:27.000 : en:5
00:20:47.000 : en:6
00:24:20.000 : en:7
00:25:49.000 : en:8
00:29:52.000 : en:9
00:31:53.000 : en:10
00:35:30.000 : en:11
00:37:36.000 : en:12
00:40:35.000 : en:13
00:46:08.000 : en:14
00:50:44.000 : en:15
00:55:00.000 : en:16
01:00:54.000 : en:17
01:04:23.000 : en:18
01:07:57.000 : en:19
01:10:12.000 : en:20
01:15:07.000 : en:21
01:17:56.000 : en:22
01:23:16.000 : en:23
01:27:29.000 : en:24
01:35:46.000 : en:25
01:37:54.000 : en:26
01:40:23.000 : en:27
01:42:30.000 : en:28
 
Показать сообщения:    

Текущее время: Сегодня 23:39

Часовой пояс: GMT



Вы не можете начинать темы
Вы не можете отвечать на сообщения
Вы не можете редактировать свои сообщения
Вы не можете удалять свои сообщения
Вы не можете голосовать в опросах
Вы не можете прикреплять файлы к сообщениям
Вы не можете скачивать файлы
Наши партнеры: интернет магазин Ивановского трикотажа textilla.ru