Важное объявление!
У Нас Все раздачи мультитрекерные, при нуле пиров в релизах, можете смело вставать на закачку!
 
Автор Сообщение

HUNTER

Стаж:
4 года 7 месяцев
Сообщений:
61564

Репутация: 101

[+] [-]
Вне форума [Профиль] [ЛС]

Город на морском дне / City Beneath the Sea
16:9 NTSC R1
Слоган: «Theirs was the most dangerous mission in history . . . to save the world from total destruction!»
Страна: США
Студия: Kent Productions, Motion Pictures International, Warner Bros. Television
Жанр: фантастика, боевик
Год выпуска: 1971
Продолжительность: 01:33:36
Перевод: Субтитры - Лопатинская Наташа, sasha20072007, slavnus
Cубтитры: русские
Оригинальная аудиодорожка: английский
Режиссер: Ирвин Аллен / Irwin Allen
В ролях: Стюарт Уитман, Роберт Вагнер, Розмари Форсайт, Роберт Колбер, Барр ДеБеннинг, Сюзанна Миранда, Ричард Бейсхарт, Джозеф Коттен, Джеймс Даррен, Пол Стюарт ...
Описание: 2053 год. Человечеством на дне моря построен рукотворный город Пасифика. Первоначально задумывался, как чисто научный проект. Но правительство США решает спрятать в нем свой золотой запас с Форт Нокса. Золото становится соблазном для брата бывшего руководителя Пасифики. А тут еще и радиоактивный Н128 и ужасный планетоид, несущийся прямо на Землю…
Доп. информация: Диск собран из City Beneath The Sea_1971_DVD5 R1 найденного в сети. (Который на постере)
Бонусы: Трейлер.
Меню: Статичное, неозвученное, на английском.
.
.
Меню неотредактировано, переключение субтитров с пульта.
Фильм автоматический стартует с анг. звук. дорожкой и рус. субтитрами.
--Спасибо за рус. субтитры sasha20072007
-- --City Beneath The Sea_1971_DVD5 R1_Sample_.rar--Тип релиза: DVD5 (Custom)
Контейнер: DVD-Video
Видео: NTSC 16:9 (720x480) VBR Auto Letterboxed, ~ 5615.66 kbps avg
Аудио: English, AC3, 2/0 (L,R) ch, 192 kbps, Delay 0 mSec
Формат субтитров: prerendered (DVD/IDX+SUB)

MediaInfo

General
Complete name : City Beneath The Sea_1971_DVD5 R1\VIDEO_TS\VTS_02_2.VOB
Format : MPEG-PS
File size : 1 024 MiB
Duration : 24mn 45s
Overall bit rate mode : Variable
Overall bit rate : 5 782 Kbps
Video
ID : 224 (0xE0)
Format : MPEG Video
Format version : Version 2
Format profile : Main@Main
Format settings, BVOP : Yes
Format settings, Matrix : Custom
Format settings, GOP : M=3, N=12
Duration : 24mn 45s
Bit rate mode : Variable
Bit rate : 5 475 Kbps
Maximum bit rate : 8 300 Kbps
Width : 720 pixels
Height : 480 pixels
Display aspect ratio : 16:9
Frame rate : 23.976 fps
Standard : NTSC
Color space : YUV
Chroma subsampling : 4:2:0
Bit depth : 8 bits
Scan type : Progressive
Scan order : 2:3 Pulldown
Compression mode : Lossy
Bits/(Pixel*Frame) : 0.661
Time code of first frame : 01:38:36:06
Time code source : Group of pictures header
Stream size : 970 MiB (95%)
Color primaries : BT.601 NTSC
Transfer characteristics : BT.601
Matrix coefficients : BT.601
Audio
ID : 189 (0xBD)-128 (0x80)
Format : AC-3
Format/Info : Audio Coding 3
Mode extension : CM (complete main)
Format settings, Endianness : Big
Muxing mode : DVD-Video
Duration : 24mn 45s
Bit rate mode : Constant
Bit rate : 192 Kbps
Channel(s) : 2 channels
Channel positions : Front: L R
Sampling rate : 48.0 KHz
Bit depth : 16 bits
Compression mode : Lossy
Delay relative to video : -350ms
Stream size : 34.0 MiB (3%)
Text
ID : 189 (0xBD)-32 (0x20)
Format : RLE
Format/Info : Run-length encoding
Muxing mode : DVD-Video
Duration : 24mn 42s
Delay relative to video : 2s 35ms
Menu

DVD Info

Title: City Beneath The Sea_1971_DVD5 R1
Size: 3.89 Gb ( 4 074 560,00 KBytes ) - DVD-5
Enabled regions: 1, 2, 3, 4, 5, 6, 7, 8
VTS_01 :
Play Length: 00:03:50
Video: NTSC 4:3 (720x480) VBR
Audio:
English (Dolby AC3, 2 ch)
VTS_02 :
Play Length: 01:33:36
Video: NTSC 16:9 (720x480) VBR, Auto Letterboxed
Audio:
English, AC3, 2/0 (L,R) ch, 192 kbps, Delay 0 mSec
Subtitles:
Russian
VTS_03 :
Play Length: 00:00:00+00:01:00
Video: NTSC 4:3 (720x480) VBR
Audio:
English (Dolby AC3, 2 ch)
* Menus Information *
VIDEO_TS Menu
Video:
NTSC 4:3 (720x480) VBR
English Language Unit :
Title Menu
VTS_01 Menu
Video:
NTSC 16:9 (720x480) VBR
Auto Pan&Scan
English Language Unit :
Root Menu
VTS_02 Menu
Video:
NTSC 16:9 (720x480) VBR
Auto Pan&Scan
English Language Unit :
Root Menu
VTS_03 Menu
Video:
NTSC 16:9 (720x480) VBR
Auto Pan&Scan
English Language Unit :
Root Menu

П. О.

PgcDemux 1.2.0.5 - разделение компонентов диска на файлы;
MaestroSBT-Unicode-2.6.2.1 - Создание субтитров
DVDSubEdit -- Version 1.52 - Правка (цветовых схем) субтитров
MuxMan DVD authoring Professional 1.4.4 - мультиплексирование и авторинг DVD;
DVDRemake Pro 3.6.4 - реавторинг DVD;
DVD Shrink 3.2 - Сэмпл
VLC - Скриншоты-
-
- -
-
-MuxMan version 1.4.4
new project database size 400, base 2700018.
new pointer management list size 50.
new clipboard database size 20, base 678d60.
16:53:33 Begin m2v survey of C:\Temp\SEE\VideoFile.m2v.
Accepted audio C:\Temp\SEE\AudioFile_80.ac3
expanded database to 602 entries.
expanded database to 804 entries.
expanded database to 1006 entries.
expanded database to 1208 entries.
expanded database to 1410 entries.
expanded database to 1612 entries.
expanded database to 1814 entries.
expanded database to 2016 entries.
expanded database to 2218 entries.
16:55:45 End survey of C:\Temp\SEE\VideoFile.m2v.
16:56:03 Begin multiplex VTS01.
Title Segment List
Segment_1 non-seamless
Encoded stream 20 is script stream 1.
Buffering audio track 1 file C:\Temp\SEE\AudioFile_80.ac3.
Maximum audio duration 336978 fields.
Multiplex delay set to 25257.
new graphics buffer size 414720.
Positioned C:\Temp\SEE\VideoFile.m2v to 00:00:00:00
Starting scene Segment_1_scn1 at 00:00:00:00
Starting scene Segment_1_scn2 at 00:10:00:15
Starting scene Segment_1_scn3 at 00:20:00:00
Starting scene Segment_1_scn4 at 00:30:00:00
Starting scene Segment_1_scn5 at 00:40:00:15
Starting scene Segment_1_scn6 at 00:50:00:00
Starting scene Segment_1_scn7 at 01:00:00:15
Starting scene Segment_1_scn8 at 01:10:00:00
Starting scene Segment_1_scn9 at 01:20:00:00
Starting scene Segment_1_scn10 at 01:30:00:15
SeqEnd at DDEEC318.
Bytes remaining in buffer = 0.
Bitrate - avg: 5609332, min: 327352 (lba 0), max: 8707580 (lba 817397).
Shortest GOP has 27 fields, longest GOP has 30 fields.
Fields: 336984, VOBU: 11233, Sectors: 1924790.
17:03:13 Begin multiplex VMG.
17:03:13 End multiplex.
Summary of Virtual Memory Management
VM base 02700000, reserved 60000000, commited 00040000, free 7ad8, disposable 0.
handle 1, size 38528 (230672 data), owner 80000001, time 0, locks 1 0 0, lcnt 1.
Locked by DBinit.
handle 0, size 7ad8 (31424 data), owner 0, time 0, locks 0 0 0, lcnt 0.

Скриншоты меню

Скриншоты доп. материалов


_________________
Показать сообщения:    

Текущее время: Сегодня 21:30

Часовой пояс: GMT



Вы не можете начинать темы
Вы не можете отвечать на сообщения
Вы не можете редактировать свои сообщения
Вы не можете удалять свои сообщения
Вы не можете голосовать в опросах
Вы не можете прикреплять файлы к сообщениям
Вы не можете скачивать файлы
Наши партнеры: интернет магазин Ивановского трикотажа textilla.ru