Город грехов 2: Женщина, ради которой стоит убивать / Sin City: A Dame to Kill For (Роберт Родригес / Robert Rodriguez, Фрэнк Миллер / Frank Miller) [2014, Россия, США, триллер, криминал, BDRip 720p] [US Transfer] Dub + Sub Eng + Original Eng :: Ивановский Торрент трекер
Важное объявление!
У Нас Все раздачи мультитрекерные, при нуле пиров в релизах, можете смело вставать на закачку!
Статистика раздачи
Размер:     |    Зарегистрирован:     |    Скачан:     |   
Нет
 
     
 
 
Автор Сообщение

HUNTER

Стаж:
4 года 11 месяцев
Сообщений:
66052

Репутация: 101

[+] [-]
Вне форума [Профиль] [ЛС]

Город грехов 2: Женщина, ради которой стоит убивать / Sin City: A Dame to Kill For
Страна: Россия, США
Студия: Aldamisa Entertainment, Demarest Films, Miramax Films, Solipsist Film, Troublemaker Studios
Жанр: триллер, криминал
Год выпуска: 2014
Продолжительность: 01:42:08
Перевод: Профессиональный (дублированный) Blu-Ray RUS
Cубтитры: английские (full, SDH)
Оригинальная аудиодорожка: английский
Режиссер: Роберт Родригес / Robert Rodriguez, Фрэнк Миллер / Frank Miller
В ролях: Ева Грин, Микки Рурк, Джош Бролин, Джессика Альба, Джозеф Гордон-Левитт, Розарио Доусон, Пауэрс Бут, Деннис Хейсбёрт, Джейми Чунг, Брюс Уиллис, Джуно Темпл
Описание: В темных переулках Города Грехов Дуайт планирует жестоко отомстить женщине по имени Ава Лорд, которая его предала, в то время как Нэнси пытается смириться со смертью детектива Хартигана.

Тип релиза: BDRip 720p[HDAccess]
Контейнер: MKV
Исходник:Sin.City.A.Dame.to.Kill.For.2014.1080p.BluRay.DTS.x264-HDAccess
Видео: AVC, 1280x694, 4443 bps, 23.976 fps
Аудио 1: Russian: 48 kHz, AC3, 3/2 (L,C,R,l,r) + LFE ch, 640.00 kbps |Blu-ray Rus|
Аудио 2: English: 48 kHz, AC3, 3/2 (L,C,R,l,r) + LFE ch, 640.00 kbps |Original|
Чаптеры:есть

x264 log

x264 INFO
x264 : frame I:1816 Avg QP:14.14 size:108620
x264 : frame P:39697 Avg QP:15.94 size: 40711
x264 : frame B:105415 Avg QP:18.55 size: 15914
x264 : consecutive B-frames: 4.5% 5.9% 12.8% 43.3% 12.6% 14.0% 2.7% 2.8% 1.5%

MediaInfo

General
Unique ID : 174008783582329752064404135529703823144 (0x82E8DF6887D6BFEBB21575CC691C5728)
Complete name : D:\рипы\Sin.City.A.Dame.to.Kill.For.2014.720p.BluRay.DD5.1.x264-Talian-.mkv
Format : Matroska
Format version : Version 2
File size : 4.17 GiB
Duration : 1h 42mn
Overall bit rate : 5 840 Kbps
Movie name : Sin City A Dame to Kill For-Talian-
Encoded date : UTC 2014-11-09 14:47:54
Writing application : mkvmerge v5.7.0 ('The Whirlwind') built on Jul 8 2012 20:08:51
Writing library : libebml v1.2.3 + libmatroska v1.3.0
Video
ID : 1
Format : AVC
Format/Info : Advanced Video Codec
Format profile : High@L4.1
Format settings, CABAC : Yes
Format settings, ReFrames : 9 frames
Codec ID : V_MPEG4/ISO/AVC
Duration : 1h 42mn
Bit rate : 4 443 Kbps
Width : 1 280 pixels
Height : 694 pixels
Display aspect ratio : 16:9
Frame rate : 23.976 fps
Color space : YUV
Chroma subsampling : 4:2:0
Bit depth : 8 bits
Scan type : Progressive
Bits/(Pixel*Frame) : 0.209
Stream size : 3.17 GiB (76%)
Title : HDAccess
Writing library : x264 core 142 r2431kMod ac76440
Encoding settings : cabac=1 / ref=9 / deblock=1:-3:-3 / analyse=0x3:0x133 / me=umh / subme=10 / psy=1 / fade_compensate=0.00 / psy_rd=1.00:0.00 / mixed_ref=1 / me_range=24 / chroma_me=1 / trellis=2 / 8x8dct=1 / cqm=0 / deadzone=21,11 / fast_pskip=0 / chroma_qp_offset=-2 / threads=24 / lookahead_threads=4 / sliced_threads=0 / nr=0 / decimate=0 / interlaced=0 / bluray_compat=0 / constrained_intra=0 / fgo=0 / bframes=8 / b_pyramid=2 / b_adapt=2 / b_bias=0 / direct=3 / weightb=1 / open_gop=0 / weightp=2 / keyint=250 / keyint_min=23 / scenecut=40 / intra_refresh=0 / rc=crf / mbtree=0 / crf=16.0000 / qcomp=0.70 / qpmin=0 / qpmax=69 / qpstep=4 / ip_ratio=1.30 / pb_ratio=1.20 / aq=1:0.85
Language : English
Default : Yes
Forced : No
Audio #1
ID : 2
Format : AC-3
Format/Info : Audio Coding 3
Mode extension : CM (complete main)
Format settings, Endianness : Big
Codec ID : A_AC3
Duration : 1h 42mn
Bit rate mode : Constant
Bit rate : 640 Kbps
Channel(s) : 6 channels
Channel positions : Front: L C R, Side: L R, LFE
Sampling rate : 48.0 KHz
Bit depth : 16 bits
Compression mode : Lossy
Stream size : 468 MiB (11%)
Title : DUB-Blu-Ray RUS
Language : Russian
Default : Yes
Forced : No
Audio #2
ID : 3
Format : AC-3
Format/Info : Audio Coding 3
Mode extension : CM (complete main)
Format settings, Endianness : Big
Codec ID : A_AC3
Duration : 1h 42mn
Bit rate mode : Constant
Bit rate : 640 Kbps
Channel(s) : 6 channels
Channel positions : Front: L C R, Side: L R, LFE
Sampling rate : 48.0 KHz
Bit depth : 16 bits
Compression mode : Lossy
Stream size : 468 MiB (11%)
Title : Original
Language : English
Default : No
Forced : No
Text #1
ID : 4
Format : UTF-8
Codec ID : S_TEXT/UTF8
Codec ID/Info : UTF-8 Plain Text
Title : Sub-full
Language : English
Default : No
Forced : No
Text #2
ID : 5
Format : UTF-8
Codec ID : S_TEXT/UTF8
Codec ID/Info : UTF-8 Plain Text
Title : Sub-SDH
Language : English
Default : No
Forced : No
Menu
00:00:00.000 : en:00:00:00.000
00:07:04.966 : en:00:07:04.966
00:14:23.571 : en:00:14:23.571
00:20:40.114 : en:00:20:40.114
00:26:18.911 : en:00:26:18.911
00:31:26.885 : en:00:31:26.885
00:38:13.666 : en:00:38:13.666
00:45:24.639 : en:00:45:24.639
00:50:49.630 : en:00:50:49.630
00:57:46.588 : en:00:57:46.588
01:07:05.980 : en:01:07:05.980
01:12:30.805 : en:01:12:30.805
01:16:48.437 : en:01:16:48.437
01:23:19.828 : en:01:23:19.828
01:28:59.084 : en:01:28:59.084
01:35:22.967 : en:01:35:22.967

Скриншоты

Source vs Encode



_________________
Показать сообщения:    

Текущее время: Сегодня 17:36

Часовой пояс: GMT



Вы не можете начинать темы
Вы не можете отвечать на сообщения
Вы не можете редактировать свои сообщения
Вы не можете удалять свои сообщения
Вы не можете голосовать в опросах
Вы не можете прикреплять файлы к сообщениям
Вы не можете скачивать файлы