Город героев / Big Hero 6 (Дон Холл / Don Kholl, Крис Уильямс / Kris Uil\'yams) [2014, мультфильм, боевик, комедия, семейный, BDRip] Dub :: Ивановский Торрент трекер
Важное объявление!
У Нас Все раздачи мультитрекерные, при нуле пиров в релизах, можете смело вставать на закачку!
Статистика раздачи
Размер:     |    Зарегистрирован:     |    Скачан:     |   
Нет
 
     
 
 
Автор Сообщение

HUNTER

Стаж:
4 года 11 месяцев
Сообщений:
66052

Репутация: 101

[+] [-]
Вне форума [Профиль] [ЛС]

Город героев / Big Hero 6
-
Страна : США
Жанр : мультфильм, боевик, комедия, семейный
Производство : Walt Disney Animation Studios, Walt Disney Pictures
Продолжительность : 01:41:53
Год выпуска : 2014
Перевод : Профессиональный (дублированный)
Русские субтитры : Нет
Режиссёр : Дон Холл / Don Kholl, Крис Уильямс / Kris Uil'yamsс
Роли озвучивали : Дженезис Родригез, Джейми Чунг, Алан Тьюдик, Дэймон Уайанс мл., ТиДжей Миллер, Джеймс Кромуэлл, Майя Рудольф, Райан Поттер, Дэниэл Хенни, Скотт Эдсит
-

-
Описание : Юный Хиро Хамада — прирожденный изобретатель и гений конструирования роботов. Вместе со старшим братом Тадаши они воплощают в жизнь самые передовые идеи в Техническом университете города будущего Сан-Франсокио. После серии загадочных событий друзья оказываются в центре коварного заговора. Отчаявшись, Хиро решает использовать веселого и добродушного экспериментального робота Бэймакса, перепрограммировав его в неуязвимую боевую машину.
-

-
Релиз : Scarabey
Качество : BDRip
Формат : AVI
Видео : XviD, 688x288 (2.40:1), 23.976 fps, 885 kbps avg, 0.186 bit/pixel
Аудио : Русский, MP3, 48.0 kHz, 2 ch, 128 kbps (Дублированный)
Субтитры : Отсутствуют
-

MediaInfo

General Complete name : E:/Torrent_2/Big Hero 6 [2014, BDRip XviD, RUS].avi Format : AVI Format/Info : Audio Video Interleave File size : 745 MiB Duration : 1h 41mn Overall bit rate : 1 022 Kbps Writing application : VirtualDubMod 1.5.10.2 (build 2540/release) Writing library : VirtualDubMod build 2540/release
Video #0 ID : 0 Format : MPEG-4 Visual Format profile : Advanced Simple@L5 Format settings, BVOP : 1 Format settings, QPel : No Format settings, GMC : No warppoints Format settings, Matrix : Custom Codec ID : XVID Codec ID/Hint : XviD Duration : 1h 41mn Bit rate : 885 Kbps Width : 688 pixels Height : 288 pixels Display aspect ratio : 2.40:1 Frame rate : 23.976 fps Color space : YUV Chroma subsampling : 4:2:0 Bit depth : 8 bits Scan type : Progressive Compression mode : Lossy Bits/(Pixel*Frame) : 0.186 Stream size : 645 MiB (87%) Writing library : XviD 73
Audio #1 ID : 1 Format : MPEG Audio Format version : Version 1 Format profile : Layer 3 Codec ID : 55 Codec ID/Hint : MP3 Duration : 1h 41mn Bit rate mode : Constant Bit rate : 128 Kbps Channel(s) : 2 channels Sampling rate : 48.0 KHz Compression mode : Lossy Stream size : 93.3 MiB (13%) Alignment : Aligned on interleaves Interleave, duration : 42 ms (1.00 video frame) Interleave, preload duration : 504 ms Writing library : LAME3.99r Encoding settings : -m s -V 4 -q 2 -lowpass 17 -b 128

Скриншоты


Моя максимальная скорость отдачи 100КБ/c
Раздаю с 7:00 до 00:00 по Москве

_________________
Показать сообщения:    

Текущее время: Сегодня 20:59

Часовой пояс: GMT



Вы не можете начинать темы
Вы не можете отвечать на сообщения
Вы не можете редактировать свои сообщения
Вы не можете удалять свои сообщения
Вы не можете голосовать в опросах
Вы не можете прикреплять файлы к сообщениям
Вы не можете скачивать файлы