Важное объявление!
У Нас Все раздачи мультитрекерные, при нуле пиров в релизах, можете смело вставать на закачку!
Статистика раздачи
Размер:     |    Зарегистрирован:     |    Скачан:     |   
Нет
 
     
 
 
Автор Сообщение

HUNTER

Стаж:
5 лет 1 месяц
Сообщений:
68439

Репутация: 101

[+] [-]
Вне форума [Профиль] [ЛС]


Город героев
Big Hero 6
-
Страна: США (Walt Disney Animation Studios)
Жанр: фантастика, комедия, семейный
Продолжительность: 01:41:52
Год выпуска: 2014
Перевод: Профессиональный (дублированный) [Rus, Ukr]
Перевод 2: Авторский (одноголосый закадровый) Юрий Сербин
Перевод 2: Авторский (одноголосый закадровый) Юрий Живов
Русские субтитры: есть-Режиссёр: Дон Холл / Don Hall, Крис Уильямс / Chris Williams
Роли озвучивали: Райан Поттер, Скотт Эдсит, Дэниэл Хенни, ТиДжей Миллер, Джейми Чанг, Дэймон Уайанс мл., Дженезис Родригез, Джеймс Кромуэлл, Алан Тьюдик, Майя Рудольф-Роли дублировали: Даниил Рагин, Максим Сергеев, Игорь Сергеев, Валерий Смекалов, Аделина Червякова-ОписаниеЮный Хиро Хамада — прирожденный изобретатель и гений конструирования роботов. Вместе со старшим братом Тадаши они воплощают в жизнь самые передовые идеи в Техническом университете города будущего Сан-Франсокио. После серии загадочных событий друзья оказываются в центре коварного заговора. Отчаявшись, Хиро решает использовать веселого и добродушного экспериментального робота Бэймакса, перепрограммировав его в неуязвимую боевую машину.- Релиз: -
«Город героев» (англ. Big Hero 6) — американский трёхмерный компьютерный анимационный фильм 2014 года, созданный студией «Walt Disney Animation Studios» и выпущенный кинокомпанией «Walt Disney Pictures». Основан на одноимённых персонажах[en] комиксов издательства Marvel

Оскар, 2015 год
Победитель (1):
Лучший анимационный фильм

Качество: BDRip 1080p Big.Hero.6.2014.1080p.BluRay.AVC.DTS-HD.MA.7.1-RARBG
Формат: MKV
Видео: AVC 11.5 Mbps 1920 x 804 (2.388) at 23.976 fps
Аудио 1: AC-3 640 Kbps 6 channels, 48.0 KHz Rus
Аудио 2: DTS 1509 Kbps 6 channels, 48.0 KHz AVO Юрий Сербин
Аудио 3: DTS 1509 Kbps 6 channels, 48.0 KHz AVO Юрий Живов
Аудио 4: DTS 1509 Kbps 6 channels, 48.0 KHz Ukr
Аудио 5: DTS 1509 Kbps 6 channels, 48.0 KHz Eng
Субтитры: Rus [Full], Ukr [Forced, Full], Eng [Ful, SDH]

MI | Log

Log
x264 [info]: frame I:1199 Avg QP:13.95 size:278776
x264 [info]: frame P:35185 Avg QP:15.41 size:119148
x264 [info]: frame B:110174 Avg QP:17.27 size: 41315
x264 [info]: consecutive B-frames: 4.5% 3.3% 8.9% 16.1% 18.5% 43.8% 3.5% 0.8% 0.6%
x264 [info]: mb I I16..4: 22.9% 60.7% 16.4%
x264 [info]: mb P I16..4: 2.8% 27.3% 2.3% P16..4: 20.7% 29.9% 12.3% 3.0% 0.2% skip: 1.6%
x264 [info]: mb B I16..4: 0.2% 3.8% 0.3% B16..8: 32.3% 25.0% 5.5% direct: 7.0% skip:25.9% L0:41.5% L1:42.7% BI:15.8%
x264 [info]: 8x8 transform intra:84.0% inter:50.8%
x264 [info]: direct mvs spatial:100.0% temporal:0.0%
x264 [info]: coded y,uvDC,uvAC intra: 96.5% 89.0% 70.9% inter: 34.2% 34.2% 7.1%
x264 [info]: i16 v,h,dc,p: 4% 4% 38% 55%
x264 [info]: i8 v,h,dc,ddl,ddr,vr,hd,vl,hu: 8% 9% 16% 9% 12% 10% 12% 10% 13%
x264 [info]: i4 v,h,dc,ddl,ddr,vr,hd,vl,hu: 28% 8% 6% 8% 11% 10% 11% 8% 10%
x264 [info]: i8c dc,h,v,p: 40% 29% 18% 13%
x264 [info]: Weighted P-Frames: Y:3.1% UV:2.4%
x264 [info]: ref P L0: 51.4% 9.7% 26.6% 10.7% 1.7% 0.0%
x264 [info]: ref B L0: 86.4% 10.7% 2.9%
x264 [info]: ref B L1: 94.1% 5.9%
x264 [info]: kb/s:11881.27
x264 [total]: encoded 146558 frames, 4.41 fps, 11881.27 kb/s, duration 9:13:19.40
Format : Matroska
Format version : Version 4 / Version 2
File size : 13.2 GiB
Duration : 1h 41mn
Overall bit rate : 18.6 Mbps
Encoded date : UTC 2016-01-22 19:40:48
Writing application : mkvmerge v6.7.0 ('Back to the Ground') 32bit built on Jan 8 2014 15:03:17
Writing library : libebml v1.3.0 + libmatroska v1.4.1
Video
ID : 1
Format : AVC
Format/Info : Advanced Video Codec
Format profile : High@L4.1
Format settings, CABAC : Yes
Format settings, ReFrames : 4 frames
Codec ID : V_MPEG4/ISO/AVC
Duration : 1h 41mn
Bit rate : 11.5 Mbps
Width : 1 920 pixels
Height : 804 pixels
Display aspect ratio : 2.40:1
Frame rate mode : Constant
Frame rate : 23.976 fps
Color space : YUV
Chroma subsampling : 4:2:0
Bit depth : 8 bits
Scan type : Progressive
Bits/(Pixel*Frame) : 0.311
Stream size : 8.20 GiB (62%)
Title : Big Hero 6 (2014).1080p [rutracker.org]
Writing library : x264 core 148 r2638kMod 7599210
Encoding settings : cabac=1 / ref=4 / deblock=1:-3:-2 / analyse=0x3:0x133 / me=umh / subme=11 / psy=1 / fade_compensate=0.00 / psy_rd=1.00:0.05 / mixed_ref=1 / me_range=48 / chroma_me=1 / trellis=2 / 8x8dct=1 / cqm=0 / deadzone=21,11 / fast_pskip=0 / chroma_qp_offset=-3 / threads=12 / lookahead_threads=2 / sliced_threads=0 / nr=0 / decimate=1 / interlaced=0 / bluray_compat=0 / constrained_intra=0 / fgo=0 / bframes=8 / b_pyramid=2 / b_adapt=2 / b_bias=0 / direct=3 / weightb=1 / open_gop=0 / weightp=2 / keyint=250 / keyint_min=23 / scenecut=40 / intra_refresh=0 / rc_lookahead=60 / rc=crf / mbtree=0 / crf=17.1000 / qcomp=0.60 / qpmin=0 / qpmax=69 / qpstep=4 / vbv_maxrate=50000 / vbv_bufsize=62500 / crf_max=0.0 / nal_hrd=none / filler=0 / ip_ratio=1.40 / pb_ratio=1.30 / aq=3:0.90
Language : English
Default : Yes
Forced : No
Audio #1
ID : 2
Format : AC-3
Format/Info : Audio Coding 3
Mode extension : CM (complete main)
Format settings, Endianness : Big
Codec ID : A_AC3
Duration : 1h 41mn
Bit rate mode : Constant
Bit rate : 640 Kbps
Channel(s) : 6 channels
Channel positions : Front: L C R, Side: L R, LFE
Sampling rate : 48.0 KHz
Compression mode : Lossy
Stream size : 466 MiB (3%)
Title : DUB [Blu-ray]
Language : Russian
Default : Yes
Forced : No
Audio #2
ID : 3
Format : DTS
Format/Info : Digital Theater Systems
Mode : 16
Format settings, Endianness : Big
Codec ID : A_DTS
Duration : 1h 41mn
Bit rate mode : Constant
Bit rate : 1 509 Kbps
Channel(s) : 6 channels
Channel positions : Front: L C R, Side: L R, LFE
Sampling rate : 48.0 KHz
Bit depth : 24 bits
Compression mode : Lossy
Stream size : 1.07 GiB (8%)
Title : AVO (U. Serbin)
Language : Russian
Default : No
Forced : No
Audio #3
ID : 4
Format : DTS
Format/Info : Digital Theater Systems
Mode : 16
Format settings, Endianness : Big
Codec ID : A_DTS
Duration : 1h 41mn
Bit rate mode : Constant
Bit rate : 1 509 Kbps
Channel(s) : 6 channels
Channel positions : Front: L C R, Side: L R, LFE
Sampling rate : 48.0 KHz
Bit depth : 24 bits
Compression mode : Lossy
Stream size : 1.07 GiB (8%)
Title : AVO (U. Jivov)
Language : Russian
Default : No
Forced : No
Audio #4
ID : 5
Format : DTS
Format/Info : Digital Theater Systems
Mode : 16
Format settings, Endianness : Big
Codec ID : A_DTS
Duration : 1h 41mn
Bit rate mode : Constant
Bit rate : 1 509 Kbps
Channel(s) : 6 channels
Channel positions : Front: L C R, Side: L R, LFE
Sampling rate : 48.0 KHz
Bit depth : 24 bits
Compression mode : Lossy
Stream size : 1.07 GiB (8%)
Title : DUB
Language : Ukrainian
Default : No
Forced : No
Audio #5
ID : 6
Format : DTS
Format/Info : Digital Theater Systems
Mode : 16
Format settings, Endianness : Big
Codec ID : A_DTS
Duration : 1h 41mn
Bit rate mode : Constant
Bit rate : 1 509 Kbps
Channel(s) : 6 channels
Channel positions : Front: L C R, Side: L R, LFE
Sampling rate : 48.0 KHz
Bit depth : 24 bits
Compression mode : Lossy
Stream size : 1.07 GiB (8%)
Title : Original
Language : English
Default : No
Forced : No
Text #1
ID : 7
Format : UTF-8
Codec ID : S_TEXT/UTF8
Codec ID/Info : UTF-8 Plain Text
Title : Full
Language : Russian
Default : No
Forced : No
Text #2
ID : 8
Format : UTF-8
Codec ID : S_TEXT/UTF8
Codec ID/Info : UTF-8 Plain Text
Title : Forced
Language : Ukrainian
Default : No
Forced : No
Text #3
ID : 9
Format : UTF-8
Codec ID : S_TEXT/UTF8
Codec ID/Info : UTF-8 Plain Text
Title : Full
Language : Ukrainian
Default : No
Forced : No
Text #4
ID : 10
Format : UTF-8
Codec ID : S_TEXT/UTF8
Codec ID/Info : UTF-8 Plain Text
Title : Full
Language : English
Default : No
Forced : No
Text #5
ID : 11
Format : UTF-8
Codec ID : S_TEXT/UTF8
Codec ID/Info : UTF-8 Plain Text
Title : SDH
Language : English
Default : No
Forced : No
Menu
00:00:00.000 : en: 1. Hustle
00:07:15.685 : en: 2. Nerd School
00:14:37.835 : en: 3. Showcase
00:21:49.183 : en: 4. Tragedy
00:24:32.888 : en: 5. A New Friend
00:29:34.731 : en: 6. Being Helpful
00:36:58.091 : en: 7. Upgrade
00:44:18.322 : en: 8. The Chase
00:50:49.088 : en: 9. Fred's House
00:54:33.020 : en:10. Training
01:00:44.140 : en:11. Secret Lair
01:07:12.612 : en:12. Big Reveal
01:11:54.644 : en:13. Putting It All Together
01:16:26.665 : en:14. Saving The Day!
01:24:44.162 : en:15. The Portal
01:31:52.757 : en:16. End Credits

_________________
Показать сообщения:    

Текущее время: Сегодня 10:02

Часовой пояс: GMT



Вы не можете начинать темы
Вы не можете отвечать на сообщения
Вы не можете редактировать свои сообщения
Вы не можете удалять свои сообщения
Вы не можете голосовать в опросах
Вы не можете прикреплять файлы к сообщениям
Вы не можете скачивать файлы